<?xml version="1.0" standalone="no"?>
<!DOCTYPE svg PUBLIC "-//W3C//DTD SVG 1.1//EN" "http://www.w3.org/Graphics/SVG/1.1/DTD/svg11.dtd" >
<svg xmlns="http://www.w3.org/2000/svg">
<metadata></metadata>
<defs>
<font id="cassia-regularregular" horiz-adv-x="545" >
<font-face units-per-em="1000" ascent="745" descent="-255" />
<missing-glyph horiz-adv-x="222" />
<glyph unicode="&#xfb01;" horiz-adv-x="607" d="M288 -2q-108 4 -139 4q-23 0 -61.5 -2t-50.5 -2v50q12 -1 26 -1q39 0 47 15q6 14 6 58q0 38 0.5 144.5t0.5 154.5q-30 0 -70 -2v53q42 0 51 4q10 3 15 13t9 39q12 78 42 123q61 94 189 94q73 0 105.5 -26t32.5 -63q0 -27 -15 -39.5t-35 -12.5q-46 0 -51 40q-2 16 -6.5 25 t-17.5 16.5t-35 7.5q-35 0 -62.5 -17.5t-40.5 -41.5q-28 -53 -33 -160q164 0 215.5 2.5t87.5 14.5l9 -12q-9 -86 -9 -220q0 -91 1 -132q2 -56 7 -66q8 -12 41 -12q15 0 31 1v-50q-100 4 -117 4q-24 0 -68 -2t-47 -2v50q11 -1 24 -1q37 0 44 13q4 7 6 65q1 43 1 122 q0 122 -5 146q-4 14 -16.5 20t-42.5 6q-25 0 -78 0.5t-85 0.5q-1 -36 -1 -115q0 -124 2 -185q1 -51 8 -61q7 -12 46 -12q23 0 39 1v-50z" />
<glyph unicode="&#xfb02;" horiz-adv-x="609" d="M288 -2q-108 4 -139 4q-23 0 -61.5 -2t-50.5 -2v50q12 -1 26 -1q39 0 47 15q6 15 6 58q1 80 1 299q-30 0 -70 -2v52q39 0 51 4q9 4 14 14t9 39q12 80 42 128q27 44 75.5 67.5t108.5 23.5q51 0 87 -13q41 6 63 12l10 -13q-6 -79 -7 -344q0 -29 1 -118.5t1 -147.5 q0 -49 8 -61q8 -13 38 -13q17 0 31 1v-50q-104 4 -113 4q-24 0 -66 -2t-53 -2v50q12 -1 24 -1q33 0 43 13q8 11 8 61q1 69 1 209q0 210 -3 289q-2 42 -18.5 58t-63.5 16q-38 0 -66.5 -16.5t-41.5 -38.5q-30 -50 -35 -166q80 0 119 3v-56q-33 1 -120 1q-1 -36 -1 -115 q0 -124 2 -185q1 -51 8 -61q7 -12 44 -12q25 0 41 1v-50z" />
<glyph unicode="&#xfb03;" horiz-adv-x="916" d="M288 -2q-108 4 -139 4q-23 0 -61.5 -2t-50.5 -2v50q12 -1 25 -1q40 0 48 14q6 14 6 59q1 80 1 299q-30 0 -70 -2v52q39 0 51 4q10 4 15.5 14.5t9.5 38.5q10 69 34 111q53 90 160 90q47 0 73.5 -19t26.5 -51q0 -20 -12.5 -29.5t-29.5 -9.5q-30 0 -38 27q-9 30 -44 30 q-22 0 -43.5 -15.5t-30.5 -35.5q-24 -53 -24 -152h104q90 0 107 6q11 4 16.5 13t8.5 35q11 75 42 123q62 94 189 94q73 0 105.5 -26t32.5 -63q0 -27 -15 -39.5t-35 -12.5q-46 0 -51 40q-2 16 -6.5 25t-17.5 16.5t-35 7.5q-35 0 -62 -17.5t-40 -41.5q-29 -55 -34 -160 q164 0 215.5 2.5t87.5 14.5l9 -12q-9 -86 -9 -220q0 -91 1 -132q2 -56 7 -66q7 -12 41 -12q15 0 31 1v-50q-100 4 -117 4q-24 0 -67.5 -2t-46.5 -2v50q10 -1 24 -1q36 0 43 13q4 7 6 65q1 43 1 122q0 122 -5 146q-4 14 -16.5 20t-42.5 6q-60 1 -162 1q-1 -36 -1 -115 q0 -124 1 -185q1 -49 8 -61q8 -12 46 -12q24 0 39 1v-50q-108 4 -139 4q-23 0 -59 -2t-49 -2v50q10 -1 25 -1q35 0 43 14q7 13 7 59q1 80 1 300h-232q-1 -36 -1 -115q0 -124 2 -185q1 -49 8 -61t43 -12q26 0 42 1v-50z" />
<glyph unicode="&#xfb04;" horiz-adv-x="919" d="M288 -2q-108 4 -139 4q-23 0 -61.5 -2t-50.5 -2v50q12 -1 26 -1q38 0 46 14q7 16 7 59q1 80 1 299q-30 0 -70 -2v52q39 0 51 4q10 4 15.5 14.5t9.5 38.5q10 69 34 111q53 90 160 90q47 0 73.5 -19t26.5 -51q0 -20 -12.5 -29.5t-29.5 -9.5q-30 0 -38 27q-9 30 -44 30 q-22 0 -42.5 -15t-30.5 -36q-25 -55 -25 -152h104q90 0 107 6q11 4 16.5 13t8.5 35q10 75 42 127q58 92 183 92q51 0 87 -13q39 5 63 12l10 -13q-6 -79 -7 -344q0 -160 2 -266q1 -51 8 -61q8 -13 39 -13q16 0 31 1v-50q-108 4 -114 4q-24 0 -65.5 -2t-52.5 -2v50 q12 -1 24 -1q34 0 42 13q8 11 8 61q1 69 1 209q0 210 -3 289q-2 42 -18.5 58t-63.5 16q-38 0 -66 -16.5t-41 -38.5q-31 -51 -36 -166q80 0 119 3v-56q-33 1 -119 1q-1 -36 -1 -115q0 -124 1 -185q1 -48 8 -60q8 -13 47 -13q23 0 39 1v-50q-108 4 -140 4q-23 0 -59 -2t-49 -2 v50q10 -1 25 -1q35 0 43 14q7 13 7 59q1 80 1 300h-232q-1 -36 -1 -115q0 -124 2 -185q1 -49 8 -61t46 -12q23 0 39 1v-50z" />
<glyph horiz-adv-x="1000" />
<glyph horiz-adv-x="1000" />
<glyph unicode="&#xd;" horiz-adv-x="1000" />
<glyph unicode=" "  horiz-adv-x="222" />
<glyph unicode="&#x09;" horiz-adv-x="222" />
<glyph unicode="&#xa0;" horiz-adv-x="222" />
<glyph unicode="!" horiz-adv-x="319" d="M205 204h-51q-2 83 -15.5 238.5t-13.5 178.5q0 67 56 67q28 0 41.5 -15.5t13.5 -50.5q0 -27 -13.5 -183.5t-17.5 -234.5zM181 -7q-25 0 -41.5 16t-16.5 46q0 27 17.5 43.5t42.5 16.5t40.5 -16.5t15.5 -44.5t-16 -44.5t-42 -16.5z" />
<glyph unicode="&#x22;" horiz-adv-x="306" d="M126 664q0 -7 -5 -46t-11.5 -90.5t-8.5 -84.5h-37q-2 33 -9 85t-12.5 91t-5.5 45q0 44 47 44q42 0 42 -44zM269 664q0 -7 -5 -46t-11.5 -90.5t-8.5 -84.5h-37q-2 33 -9 85t-12.5 91t-5.5 45q0 44 47 44q42 0 42 -44z" />
<glyph unicode="#" horiz-adv-x="625" d="M198 -10h-52l32 230h-136v76h146l16 105h-137v76h147l31 213h52l-31 -213h136l30 213h52l-30 -213h129v-76h-139l-16 -105h132v-76h-142l-33 -230h-52l33 230h-136zM240 296h136l16 105h-136z" />
<glyph unicode="$" horiz-adv-x="507" d="M273 724v-84h13q72 0 111.5 -25.5t39.5 -65.5q0 -54 -51 -54q-17 0 -29 10t-13 26q-3 52 -71 55v-224l50 -26q130 -68 130 -165q0 -72 -49 -120t-131 -58v-90h-46v87q-88 1 -143.5 38t-55.5 90q0 26 15.5 40.5t35.5 14.5q21 0 33.5 -12t14.5 -31q5 -82 100 -85v245 l-42 22q-65 35 -93 70t-28 91q0 59 41 104t122 58v89h46zM369 141q0 43 -20.5 69t-75.5 56v-218q48 7 72 32.5t24 60.5zM142 491q0 -37 19 -59t66 -46v198q-40 -7 -62.5 -32t-22.5 -61z" />
<glyph unicode="%" horiz-adv-x="815" d="M343 445q0 -104 -41.5 -162t-122.5 -58q-72 0 -113 54t-41 140q0 100 43.5 159t125.5 59q68 0 108.5 -52t40.5 -140zM276 419q0 82 -19.5 128.5t-72.5 46.5q-42 0 -68.5 -39t-26.5 -112q0 -175 99 -175q88 0 88 151zM524 629h52l-281 -629h-53zM790 210 q0 -104 -41.5 -162t-122.5 -58q-72 0 -113 54t-41 140q0 100 43.5 158.5t125.5 58.5q68 0 108.5 -52t40.5 -139zM723 184q0 82 -19.5 128t-72.5 46q-42 0 -68.5 -39t-26.5 -111q0 -175 99 -175q88 0 88 151z" />
<glyph unicode="&#x26;" horiz-adv-x="770" d="M485 346v52q39 -2 130 -2q50 0 116 2v-51q-7 1 -22 1q-28 0 -43 -15q-8 -10 -49 -90q-34 -66 -82 -120q55 -60 92 -60q40 0 77 47l37 -29q-63 -91 -135 -91q-34 0 -61 13t-72 57q-87 -76 -203 -76q-102 0 -166.5 58t-64.5 156q0 155 176 209q-32 58 -32 114 q0 72 52.5 118.5t140.5 46.5q64 0 99 -24.5t35 -59.5q0 -21 -13 -34t-34 -13t-30.5 10t-15.5 33q-9 37 -62 37q-36 0 -63 -23.5t-27 -64.5q0 -30 10 -60t43 -84q68 -112 179 -240q75 89 75 152q0 20 -15 26t-50 6q-14 0 -22 -1zM433 101q-104 116 -177 236q-10 17 -24 17 q-12 0 -30 -9q-33 -17 -56.5 -49t-23.5 -70q0 -73 48.5 -125t136.5 -52q34 0 69 15t57 37z" />
<glyph unicode="'" horiz-adv-x="163" d="M126 664q0 -7 -5 -46t-11.5 -90.5t-8.5 -84.5h-37q-2 33 -9 85t-12.5 91t-5.5 45q0 44 47 44q42 0 42 -44z" />
<glyph unicode="(" horiz-adv-x="296" d="M291 -155l-30 -29q-99 80 -157 200.5t-58 260.5q0 137 55 257.5t159 206.5l31 -28q-83 -100 -120.5 -199.5t-37.5 -236.5q0 -120 41 -232t117 -200z" />
<glyph unicode=")" horiz-adv-x="296" d="M5 712l31 29q99 -80 156.5 -200.5t57.5 -260.5q0 -137 -55 -258t-159 -206l-31 28q84 100 121 199.5t37 236.5q0 120 -41 232t-117 200z" />
<glyph unicode="*" horiz-adv-x="349" d="M201 529q27 -11 55 -19q42 -13 47 -16q10 -4 10 -18q0 -16 -11 -29.5t-23 -13.5q-9 0 -17 6t-29 28q-18 20 -45 38q2 -20 9 -49q12 -46 12 -58q0 -26 -34 -26q-35 0 -35 24q0 5 2.5 15.5t6.5 25t6 22.5q5 21 6 46q-26 -17 -58 -55q-17 -20 -32 -20q-14 0 -25 13.5 t-11 28.5q0 21 22 27q56 15 91 29q-18 9 -80 27q-21 5 -28 11t-7 17q0 13 11.5 28.5t24.5 15.5q3 0 6 -0.5t6 -2.5t5.5 -3.5t6 -5.5t6 -6.5t8 -8.5t9.5 -10q21 -24 45 -39q-3 29 -10 57q-11 44 -11 51q0 25 35 25q34 0 34 -25q0 -5 -11 -53q-8 -28 -10 -54q11 7 64 60 q17 15 29 15q13 0 23.5 -14t10.5 -29t-17 -22q-7 -3 -42 -13.5t-55 -19.5z" />
<glyph unicode="+" horiz-adv-x="588" d="M325 61h-60v201h-204v61h204v202h60v-202h203v-61h-203v-201z" />
<glyph unicode="," horiz-adv-x="230" d="M52 -143l-16 38q23 7 48 24q31 23 31 52q0 24 -23 34q-35 17 -35 55q0 22 16 38.5t43 16.5t48 -21t21 -70q0 -59 -36 -101.5t-97 -65.5z" />
<glyph unicode="-" horiz-adv-x="322" d="M48 292q23 -2 114 -2q75 0 112 2v-73q-29 1 -111 1q-77 0 -115 -1v73z" />
<glyph unicode="." horiz-adv-x="223" d="M111 -9q-25 0 -41.5 16.5t-16.5 46.5q0 26 17.5 42.5t42.5 16.5t41 -16.5t16 -44.5t-16.5 -44.5t-42.5 -16.5z" />
<glyph unicode="/" horiz-adv-x="395" d="M364 738l-300 -853h-62l300 853h62z" />
<glyph unicode="0" d="M509 336q0 -166 -62 -258t-182 -92q-108 0 -169 85t-61 223q0 159 65.5 253t187.5 94q100 0 160.5 -82.5t60.5 -222.5zM420 295q0 290 -148 290q-67 0 -109 -67t-42 -184q0 -289 158 -289q65 0 103 62t38 188z" />
<glyph unicode="1" d="M422 -2q-116 4 -142 4q-22 0 -49 -0.5t-55.5 -2t-41.5 -1.5v51q12 -1 32 -1q49 0 62 16q10 13 10 58q1 67 1 183q0 123 -1 176t-14 62q-10 6 -26 6q-20 0 -62 -10l-9 52q94 17 189 57l15 -11q-8 -67 -8 -282q0 -179 1 -233q1 -49 8 -60q8 -14 49 -14q25 0 41 1v-51z" />
<glyph unicode="2" d="M465 -1q-63 2 -221 2q-138 0 -221 -2l-7 54q191 150 266.5 241.5t75.5 173.5q0 56 -27.5 87.5t-83.5 31.5q-55 0 -74.5 -23.5t-21.5 -63.5q-3 -40 -47 -40q-19 0 -32.5 13t-13.5 39q0 48 52 88.5t143 40.5q101 0 151.5 -46.5t50.5 -128.5q0 -33 -11 -66t-42.5 -81.5 t-100.5 -111t-172 -134.5q52 -2 91 -2q98 0 132 3.5t48 14.5q21 19 33 79l49 -5q-8 -46 -17 -164z" />
<glyph unicode="3" d="M307 338q169 -13 169 -158q0 -89 -67 -141.5t-168 -52.5q-110 0 -154.5 36.5t-44.5 81.5q0 28 14.5 41.5t35.5 13.5q40 0 45 -44q8 -74 105 -74q67 0 105 36.5t38 96.5q0 66 -45 98t-121 32q-30 0 -43 -1v56q8 -1 31 -1q70 0 107.5 35.5t37.5 98.5q0 41 -26.5 69.5 t-76.5 28.5q-78 0 -82 -60q-3 -47 -48 -47t-45 47q0 44 49 78t132 34q93 0 140 -39t47 -105q0 -122 -135 -160z" />
<glyph unicode="4" d="M499 -3q-112 4 -141 4q-31 0 -145 -3v51q13 -1 32 -1q48 0 60 15q10 15 11 50q1 18 1 65q-187 0 -279 -2l-9 35q126 173 304 428h69q-2 -102 -2 -158v-235q69 0 109 1l-7 -70q-40 1 -102 1q0 -12 0.5 -34.5t0.5 -28.5q1 -44 9 -55q8 -13 49 -13q24 0 40 1v-51zM317 246 l1 271q-98 -141 -191 -271h190z" />
<glyph unicode="5" d="M193 548l-24 -161q47 22 107 22q87 0 140.5 -49t53.5 -151q0 -92 -63 -156.5t-179 -64.5q-93 0 -139 39t-46 82q0 25 13.5 38.5t33.5 13.5q39 0 44 -43q7 -74 100 -74q70 0 109.5 43.5t39.5 113.5q0 68 -36 106t-100 38q-77 0 -125 -39l-25 14q23 141 41 299 q43 -2 142 -2q88 0 169 3l-9 -74q-61 2 -247 2z" />
<glyph unicode="6" d="M143 325q23 36 68 59t103 23q81 0 131 -52t50 -139q0 -111 -56.5 -171.5t-158.5 -60.5q-106 0 -164 75.5t-58 217.5q0 168 76.5 268.5t199.5 100.5q72 0 107.5 -24.5t35.5 -63.5q0 -46 -48 -46q-39 0 -47 38q-9 40 -62 40q-62 0 -114.5 -64t-62.5 -201zM147 208 q0 -67 35 -117.5t100 -50.5q60 0 94.5 41t34.5 117q0 146 -129 146q-54 0 -94.5 -40t-40.5 -96z" />
<glyph unicode="7" d="M417 547h-141q-70 0 -95.5 -3.5t-37.5 -14.5q-20 -18 -31 -77l-50 4q12 70 19 163q128 -2 236 -2q93 0 177 3l14 -20q-169 -339 -259 -590q-13 -35 -42 -35q-40 0 -40 30q0 13 10 41q110 263 240 501z" />
<glyph unicode="8" d="M192 326q-113 58 -113 159q0 71 54.5 116t147.5 45q83 0 132.5 -39.5t49.5 -106.5q0 -93 -120 -157q78 -38 110 -79.5t32 -96.5q0 -77 -61 -130t-163 -53q-97 0 -153 47t-56 123q0 57 32 98.5t108 73.5zM240 299q-111 -49 -111 -136q0 -57 37.5 -90.5t100.5 -33.5 q56 0 93.5 31.5t37.5 76.5q0 52 -32 82.5t-126 69.5zM292 366q95 57 95 126q0 48 -29 74t-79 26t-82 -25.5t-32 -67.5q0 -43 27 -72.5t100 -60.5z" />
<glyph unicode="9" d="M404 305q-52 -76 -166 -76q-81 0 -134.5 53.5t-53.5 140.5q0 101 61 162t157 61q220 0 220 -293q0 -173 -68 -271t-202 -98q-68 0 -109.5 27t-41.5 64q0 23 13 35.5t35 12.5q39 0 47 -40q6 -42 74 -42q149 0 168 264zM401 423q0 67 -35 117t-99 50q-61 0 -97.5 -39.5 t-36.5 -113.5q0 -71 35.5 -109t99.5 -38q54 0 93.5 38.5t39.5 94.5z" />
<glyph unicode=":" horiz-adv-x="243" d="M131 -9q-25 0 -41.5 16.5t-16.5 46.5q0 26 17.5 42.5t42.5 16.5t41 -16.5t16 -44.5t-16.5 -44.5t-42.5 -16.5zM131 319q-25 0 -41.5 16t-16.5 46q0 27 17.5 43.5t42.5 16.5t41 -16.5t16 -44.5t-16.5 -44.5t-42.5 -16.5z" />
<glyph unicode=";" horiz-adv-x="243" d="M131 319q-25 0 -41.5 16t-16.5 46q0 27 17.5 43.5t42.5 16.5t41 -16.5t16 -44.5t-16.5 -44.5t-42.5 -16.5zM64 -143l-16 38q23 7 48 24q31 23 31 52q0 24 -23 34q-35 17 -35 55q0 22 16 38.5t43 16.5t48 -21t21 -70q0 -59 -36 -101.5t-97 -65.5z" />
<glyph unicode="&#x3c;" horiz-adv-x="605" d="M486 66l-390 190v65l390 192v-68l-326 -155l326 -153v-71z" />
<glyph unicode="=" horiz-adv-x="605" d="M527 181h-449v62h449v-62zM527 345h-449v60h449v-60z" />
<glyph unicode="&#x3e;" horiz-adv-x="605" d="M120 513l389 -190v-64l-389 -193v69l324 156l-324 152v70z" />
<glyph unicode="?" horiz-adv-x="453" d="M231 205l-48 -15q-19 42 -19 85q0 42 19 70t77 69q40 29 56.5 57t16.5 67q0 45 -26 70t-72 25q-50 0 -70 -22t-21 -64q-1 -41 -47 -41q-44 0 -44 51q0 49 50.5 91t140.5 42q85 0 134.5 -41t49.5 -105q0 -58 -26 -97t-99 -86q-28 -18 -42 -29t-27 -31t-13 -44 q0 -25 10 -52zM207 -7q-25 0 -41.5 16t-16.5 46q0 27 17 43.5t42 16.5q26 0 41.5 -16.5t15.5 -44.5t-16 -44.5t-42 -16.5z" />
<glyph unicode="@" horiz-adv-x="831" d="M728 -41q-54 -41 -136.5 -65t-170.5 -24q-162 0 -263 97.5t-101 258.5q0 184 120 307t298 123q144 0 226 -75.5t82 -219.5q0 -115 -70.5 -205.5t-163.5 -90.5q-33 0 -48.5 18t-15.5 46q0 39 13 93q-104 -158 -208 -158q-35 0 -54 23t-19 62q0 125 103 245 q33 38 75.5 59.5t83.5 21.5q50 0 84 -9l12 24l60 3q-26 -74 -53 -182q-30 -119 -30 -160q0 -30 28 -30q53 0 97 75t44 162q0 125 -63 188t-182 63q-151 0 -251.5 -110.5t-100.5 -275.5q0 -138 86.5 -219.5t223.5 -81.5q142 0 266 80zM529 400q0 28 -61 28q-26 0 -56.5 -21.5 t-54.5 -57.5q-63 -95 -63 -179q0 -39 29 -39q68 0 164 149q23 37 36 83q6 22 6 37z" />
<glyph unicode="A" horiz-adv-x="688" d="M239 -2q-53 4 -114 4q-54 0 -122 -4v51q2 0 7.5 -0.5t8.5 -0.5q32 0 49 18.5t38 67.5q205 477 229 547h61q31 -99 212 -580q12 -32 25 -42.5t37 -10.5q2 0 8.5 0.5t7.5 0.5v-50q-38 3 -123 3q-75 0 -128 -4v51q12 -1 38 -1q24 0 33.5 6t9.5 20q0 29 -48 150q-5 15 -14 16 q-13 3 -118 3q-71 0 -100 -1q-15 0 -23 -17q-54 -129 -54 -151q0 -15 9 -20.5t31 -5.5q28 0 40 1v-51zM350 561q-81 -192 -99 -238q-4 -9 -4 -15q0 -5 6 -8q9 -3 84 -3q63 0 87 1q12 0 12 11q0 2 -2.5 9t-2.5 8q-61 178 -81 235z" />
<glyph unicode="B" horiz-adv-x="647" d="M397 358q95 -4 143 -47.5t48 -116.5q0 -55 -22 -95t-62 -61.5t-85.5 -31t-101.5 -9.5q-30 0 -85.5 2.5t-74.5 2.5q-24 0 -66 -2t-54 -2v51q12 -1 34 -1q37 0 43 13q6 11 6 61q1 80 1 231q0 46 -0.5 120.5t-0.5 80.5q0 48 -6 60t-43 12q-20 0 -32 -1v52q11 0 52.5 -2 t65.5 -2q17 0 80 2t82 2q229 0 229 -155q0 -130 -151 -164zM204 419q0 -30 10 -35t57 -5q183 0 183 135q0 56 -48 84.5t-127 28.5q-53 0 -65 -15q-10 -13 -10 -193zM204 293q0 -95 3.5 -144.5t8 -63t14.5 -20.5q20 -16 99 -16q77 0 119 35t42 101q0 74 -58.5 107t-150.5 33 q-62 0 -69 -6q-8 -7 -8 -26z" />
<glyph unicode="C" horiz-adv-x="651" d="M619 134q-105 -150 -275 -150q-135 0 -216.5 94t-81.5 242q0 173 94 271t240 98q49 0 86 -13q38 -12 42 -12q19 0 19 19l47 3q6 -90 20 -195l-51 -6q-15 75 -54.5 111t-125.5 36q-95 0 -161 -77.5t-66 -207.5q0 -140 65.5 -215t167.5 -75q125 0 208 113z" />
<glyph unicode="D" horiz-adv-x="750" d="M39 -2v51q12 -1 30 -1q38 0 44 13q7 14 7 61q1 71 1 231q0 176 -1 201q-2 52 -6 60q-7 12 -44 12q-20 0 -31 -1v52q8 0 57.5 -2t72.5 -2q16 0 72.5 1.5t77.5 1.5q362 0 362 -327q0 -155 -97 -252.5t-272 -97.5q-29 0 -80 1.5t-63 1.5q-25 0 -73.5 -2t-56.5 -2zM205 349 q0 -146 3 -217q3 -40 15 -56q17 -20 105 -20q126 0 190.5 75.5t64.5 219.5q0 269 -278 269q-72 0 -84 -11q-13 -11 -14 -48q-2 -50 -2 -212z" />
<glyph unicode="E" horiz-adv-x="612" d="M554 -1q-121 2 -394 2q-9 0 -123 -3v51q12 -1 34 -1q35 0 42 15q7 14 7 60q1 79 1 230q0 42 -0.5 118t-0.5 83q0 48 -6 59q-7 13 -43 13q-20 0 -32 -1v52q4 0 58.5 -2t79.5 -2q230 0 339 3q4 -85 14 -159l-46 -3q-13 73 -39 89q-14 10 -40.5 13t-104.5 3q-47 0 -68 -2 q-20 -1 -22 -18q-5 -31 -5 -180q0 -25 8 -30q11 -6 71 -6t82.5 4.5t33.5 15.5q14 15 17 61h44q-3 -75 -3 -113q0 -59 2 -107h-45q-4 52 -23 66q-22 17 -109 17q-64 0 -71 -7q-7 -6 -7 -31q0 -179 14 -209q7 -14 27.5 -20t74.5 -6q125 0 159 23q32 23 49 106l49 -4 q-15 -91 -24 -180z" />
<glyph unicode="F" horiz-adv-x="572" d="M307 -2q-112 4 -140 4q-25 0 -74 -2t-54 -2v52q11 -1 30 -1q38 0 45 14q6 13 6 59q1 80 1 231q0 46 -0.5 120.5t-0.5 80.5q0 48 -6 60t-44 12q-21 0 -31 -1v52q132 -4 143 -4q225 0 345 3q4 -80 14 -168l-47 -3q-14 78 -41 97q-14 11 -41.5 14t-106.5 3q-53 0 -75 -2 q-19 -1 -21 -20q-5 -35 -5 -204q0 -16 10 -19q16 -4 64 -4q63 0 84 3.5t30 15.5q13 15 16 62h45q-3 -41 -3 -112q0 -65 2 -111h-46q-3 54 -22 69q-24 17 -108 17q-56 0 -64 -6t-8 -23q0 -111 3 -162q2 -44 16 -61q11 -13 47 -13q21 0 37 1v-52z" />
<glyph unicode="G" horiz-adv-x="721" d="M625 8l-53 -6q-1 4 -8 23q-6 13 -19 13q-9 0 -26 -10q-77 -45 -161 -45q-137 0 -224.5 92t-87.5 246q0 168 94 268t246 100q55 0 104 -14q33 -11 43 -11q15 0 17 19l47 3q5 -70 19 -194l-48 -6q-14 74 -61.5 110t-135.5 36q-103 0 -168.5 -78t-65.5 -203 q0 -146 67 -222.5t174 -76.5q46 0 85.5 15.5t54.5 45.5q11 24 11 91q0 45 -8 56q-8 13 -51 13q-22 0 -35 -1v52q72 -3 132 -3q65 0 116 3v-52q-7 1 -24 1q-27 0 -35 -11q-8 -10 -8 -59q0 -139 9 -195z" />
<glyph unicode="H" horiz-adv-x="766" d="M291 -2q-112 4 -129 4q-24 0 -70 -2t-55 -2v51q7 0 18.5 -0.5t15.5 -0.5q37 0 43 13q5 11 5 61q1 80 1 230q0 47 -0.5 121.5t-0.5 80.5q0 48 -5 59q-6 13 -43 13q-20 0 -32 -1v52q10 0 54.5 -2t68.5 -2q19 0 127 4v-52q-15 1 -36 1q-29 0 -37 -12q-10 -13 -10 -62 q0 -2 -0.5 -49t-0.5 -90q0 -23 10 -26q11 -4 168 -4q153 0 165 4q9 3 9 26q0 33 -0.5 84.5t-0.5 56.5q0 48 -6 59q-7 13 -43 13q-19 0 -32 -1v52q12 0 54.5 -2t66.5 -2q22 0 130 4v-52q-15 1 -36 1q-28 0 -38 -12q-8 -10 -9 -60q-2 -66 -2 -200q0 -160 2 -232q1 -52 9 -62 q8 -12 38 -12q3 0 16 0.5t22 0.5v-51q-108 4 -132 4t-68 -2t-54 -2v51q7 0 18.5 -0.5t14.5 -0.5q36 0 43 13q6 11 6 61q0 29 0.5 90.5t0.5 83.5q0 19 -7 24q-8 5 -167 5q-162 0 -171 -5q-7 -5 -7 -24q0 -120 2 -174q1 -52 9 -62q8 -12 37 -12q3 0 16.5 0.5t21.5 0.5v-51z " />
<glyph unicode="I" horiz-adv-x="328" d="M291 -2q-108 4 -129 4q-24 0 -70 -2t-55 -2v51q7 0 18.5 -0.5t15.5 -0.5q37 0 43 13q5 11 5 61q0 42 0.5 129t0.5 101q0 176 -1 202q-2 53 -5 60q-6 13 -43 13q-20 0 -32 -1v51q10 0 54.5 -2t68.5 -2q16 0 128 4v-51q-15 1 -37 1q-28 0 -37 -12q-8 -11 -9 -62 q-2 -76 -2 -192q0 -167 2 -239q1 -52 9 -62q8 -12 37 -12q3 0 16.5 0.5t21.5 0.5v-51z" />
<glyph unicode="J" horiz-adv-x="322" d="M291 625q-14 1 -31 1q-34 0 -41 -12q-9 -15 -9 -58q0 -10 -0.5 -84t-0.5 -119q0 -25 1 -106.5t1 -116.5q0 -110 -30 -171q-27 -55 -72 -85.5t-94 -30.5q-40 0 -63.5 16t-23.5 44q0 20 12 32t30 12q28 0 44 -24q12 -15 29 -15q36 0 53 37q16 35 22 119.5t6 290.5 q0 127 -2 199q-1 45 -9 59q-7 13 -40 13q-24 0 -38 -1v52q124 -4 125 -4q25 0 76.5 2t54.5 2v-52z" />
<glyph unicode="K" horiz-adv-x="662" d="M289 -2q-112 4 -131 4q-24 0 -66.5 -2t-53.5 -2v52q12 -1 31 -1q39 0 44 12q6 12 6 61q1 80 1 231q0 43 -0.5 119.5t-0.5 83.5q0 46 -6 58q-5 12 -44 12q-19 0 -31 -1v52q11 0 53.5 -2t66.5 -2q19 0 131 4v-52q-14 1 -36 1q-31 0 -38 -11t-8 -59q-2 -72 -2 -155 q0 -25 23 -25q36 0 79 44q63 63 96.5 102.5t40.5 54t7 27.5q0 22 -47 22q-20 0 -22 -1v52q49 -4 141 -4q56 0 116 4v-52q-2 1 -15 1q-48 0 -86 -43q-47 -51 -89.5 -96t-77 -81t-42.5 -44q146 -192 227 -272q41 -40 91 -40h15v-51q-34 2 -79 2q-49 0 -75 -3q-59 57 -189 236 q-43 58 -63 76t-36 18q-15 0 -15 -20q0 -126 2 -186q1 -51 8 -62t38 -11q21 0 36 1v-52z" />
<glyph unicode="L" horiz-adv-x="595" d="M554 -1q-121 2 -394 2q-9 0 -123 -3v51q12 -1 34 -1q34 0 42 15q7 13 7 60q1 80 1 230q0 37 -0.5 115t-0.5 86q0 46 -6 58q-6 14 -44 14q-19 0 -31 -1v52q10 0 54.5 -2t68.5 -2q25 0 133 4v-52q-15 1 -40 1q-31 0 -39 -13q-9 -11 -10 -62q-2 -88 -2 -185q0 -257 16 -286 q7 -14 27.5 -20t76.5 -6q120 0 155 21q33 21 51 108l49 -3q-5 -27 -25 -181z" />
<glyph unicode="M" horiz-adv-x="878" d="M265 -2q-108 4 -122 4q-24 0 -66 -2t-49 -2v51q6 0 17 -0.5t15 -0.5q34 0 42 14q9 14 12 62q24 355 24 434q0 31 -10 46q-11 22 -50 22q-18 0 -23 -1v52q108 -4 114 -4q59 0 86 3q9 -36 21 -72q13 -35 73 -188.5t83 -213.5q15 37 57 135t71.5 168t38.5 96q13 38 21 75 q60 -3 87 -3q4 0 116 4v-52q-15 1 -34 1q-33 0 -41 -13q-8 -10 -8 -57q0 -71 15 -435q1 -48 11 -60q8 -13 45 -13q3 0 12 0.5t17 0.5v-51q-120 4 -139 4q-25 0 -67 -2t-49 -2v51q7 0 18 -0.5t14 -0.5q34 0 43 15q6 11 6 58q0 108 -12 444q-28 -66 -76 -177t-84 -194.5 t-56 -134.5h-44q-3 8 -194 507q-16 -384 -16 -459q0 -37 8 -46q11 -13 41 -13q3 0 13.5 0.5t18.5 0.5v-51z" />
<glyph unicode="N" horiz-adv-x="767" d="M278 -2q-112 4 -127 4q-24 0 -69.5 -2t-48.5 -2v51q6 0 17 -0.5t15 -0.5q35 0 43 14q9 14 9 63q2 145 2 427q0 37 -9 50q-5 8 -20.5 15.5t-37.5 8.5q-12 0 -23 -1v52q76 -4 107 -4q48 0 76 3q12 -24 51 -80q167 -230 328 -433q-4 352 -6 388q-3 43 -12 60q-9 15 -43 15 q-26 0 -38 -1v51q1 0 53 -2t77 -2q9 0 117 4v-51q-14 1 -31 1q-28 0 -39 -11t-13 -50q-4 -152 -4 -325q0 -162 3 -244l-49 -10q-286 392 -426 567q0 -256 7 -445q1 -35 12 -47q10 -13 42 -13q3 0 16 0.5t21 0.5v-51z" />
<glyph unicode="O" horiz-adv-x="749" d="M702 356q0 -169 -93 -270.5t-249 -101.5q-141 0 -227.5 95.5t-86.5 246.5q0 165 94.5 265t253.5 100q134 0 221 -93.5t87 -241.5zM609 319q0 56 -12.5 108.5t-39.5 100t-76 76t-115 28.5q-102 0 -166 -76t-64 -198q0 -146 68.5 -230t182.5 -84q100 0 161 73.5t61 201.5z " />
<glyph unicode="P" horiz-adv-x="582" d="M301 -2q-112 4 -133 4q-25 0 -73.5 -2t-56.5 -2v51q12 -1 30 -1q39 0 45 13q6 12 6 61q1 80 1 231q0 174 -1 202q-2 51 -6 59q-7 12 -45 12q-17 0 -29 -1v52q114 -3 129 -3q17 0 65.5 1.5t67.5 1.5q238 0 238 -175q0 -214 -280 -214q-33 0 -54 3q0 -109 2 -169 q1 -50 12 -62q10 -12 40 -12q26 0 42 1v-51zM205 381q0 -29 17 -35q15 -4 49 -4q93 0 133.5 36.5t40.5 117.5q0 61 -41.5 94t-125.5 33q-52 0 -62 -11q-7 -7 -9 -59q-2 -29 -2 -172z" />
<glyph unicode="Q" horiz-adv-x="749" d="M702 356q0 -137 -61.5 -230.5t-170.5 -125.5q86 -55 138 -82q59 -30 90 -30q10 0 28.5 6.5t27.5 12.5l25 -43q-32 -16 -117 -63q-105 32 -315 184q-136 4 -218.5 98.5t-82.5 242.5q0 165 94.5 265t253.5 100q134 0 221 -93.5t87 -241.5zM609 319q0 56 -12.5 108.5 t-39.5 100t-76 76t-115 28.5q-102 0 -166 -76t-64 -198q0 -146 68.5 -230t182.5 -84q100 0 161 73.5t61 201.5z" />
<glyph unicode="R" horiz-adv-x="645" d="M287 -2q-108 4 -132 4t-63.5 -2t-51.5 -2v51q12 -1 30 -1q37 0 43 13q6 11 6 61q1 74 1 230q0 47 -0.5 122t-0.5 81q0 48 -6 59q-5 12 -42 12q-19 0 -31 -1v51q114 -3 118 -3q18 0 68 0.5t76 0.5q239 0 239 -177q0 -102 -90 -156q-14 -9 -35 -18q-11 -4 -11 -11 q0 -8 5 -13l27 -45q86 -133 114 -167q20 -24 36.5 -31t45.5 -7h12v-51q-25 3 -77 3q-40 0 -65 -3q-23 29 -49.5 68.5t-39.5 61t-49 81.5t-44 73q-9 16 -40 16q-7 0 -29 0.5t-26 0.5q-12 0 -16 -2q-6 -5 -6 -26q0 -63 2 -149q1 -49 9 -62q7 -12 37 -12q19 0 35 1v-51z M204 377q0 -21 15 -23q19 -3 51 -3q82 0 129 30t47 110q0 130 -171 130q-55 0 -63 -15q-5 -10 -5 -40q-3 -70 -3 -189z" />
<glyph unicode="S" horiz-adv-x="529" d="M98 -4l-49 -1q-2 101 -16 197l51 5q14 -67 62 -110.5t117 -43.5q72 0 110 32.5t38 86.5q0 39 -24.5 68t-103.5 64l-78 35q-77 35 -110.5 77t-33.5 105q0 74 58 126.5t163 52.5q28 0 68 -11q43 -13 45 -13q15 0 17 18l46 2q3 -68 18 -181l-51 -5q-14 68 -47 100.5 t-103 32.5q-63 0 -98 -30t-35 -72q0 -44 22 -71t90 -55l71 -30q102 -44 135 -88.5t33 -106.5q0 -84 -62 -139t-166 -55q-65 0 -111 24q-26 12 -34 12q-21 0 -22 -26z" />
<glyph unicode="T" horiz-adv-x="622" d="M444 -2q-6 0 -58.5 2t-76.5 2q-23 0 -127 -4v51q8 0 21.5 -0.5t16.5 -0.5q34 0 40 12q8 13 8 63q1 76 1 230q0 163 -3 225q-1 28 -7 35q-8 9 -59 9q-71 0 -93.5 -21.5t-39.5 -101.5l-48 4q12 91 17 174q67 -4 267 -4q231 0 290 4q0 -26 1.5 -54.5t4 -63.5t3.5 -55l-49 -4 q-12 81 -33.5 101.5t-96.5 20.5q-55 0 -61 -9q-7 -10 -7 -35q-1 -44 -1 -223q0 -71 2 -231q0 -52 7 -61q10 -15 49 -15q3 0 14 0.5t18 0.5v-51z" />
<glyph unicode="U" horiz-adv-x="759" d="M738 625q-11 1 -28 1q-32 0 -43 -11q-13 -13 -13 -64q-1 -90 -1 -285q0 -283 -269 -283q-274 0 -274 249q0 73 1 184t1 138q0 48 -9 61q-7 11 -43 11q-19 0 -29 -1v52q70 -4 123 -4q67 0 135 4v-52q-11 1 -30 1q-37 0 -48 -12q-12 -13 -13 -63q-2 -95 -2 -284 q0 -112 44.5 -165t150.5 -53q105 0 151 57.5t46 169.5q0 244 -2 278q-2 47 -13 61q-10 11 -44 11q-23 0 -33 -1v52q70 -4 130 -4q44 0 112 4v-52z" />
<glyph unicode="V" horiz-adv-x="680" d="M366 -6h-64q-49 149 -224 580q-13 31 -25 41.5t-33 10.5q-15 0 -20 -1v51q37 -3 123 -3q92 0 129 3v-51q-9 1 -38 1q-23 0 -31.5 -6.5t-8.5 -21.5q0 -20 33 -111q17 -47 67 -175t75 -196q88 214 132 333q46 124 46 148q0 16 -8.5 22.5t-29.5 6.5q-27 0 -38 -1v51 q52 -4 116 -4q46 0 113 4v-51q-5 1 -19 1q-25 0 -39 -18t-33 -66q-13 -33 -104 -253t-119 -295z" />
<glyph unicode="W" horiz-adv-x="957" d="M289 -6h-62q-61 262 -150 579q-9 31 -22.5 42t-39.5 11q-9 0 -15 -1v51q37 -3 122 -3q89 0 127 3v-51q-6 1 -40 1q-39 0 -39 -29q0 -17 23 -113q12 -53 87 -336q157 443 183 526h63q15 -56 40.5 -135t63.5 -194.5t64 -197.5q57 207 84 317q27 106 27 131q0 30 -41 32 q-6 0 -20 -0.5t-15 -0.5v50q51 -4 117 -4q44 0 111 4v-50q-5 1 -17 1q-27 0 -41 -16t-26 -57q-41 -141 -98.5 -347t-59.5 -213h-63q-37 125 -171 531q-26 -73 -98 -271t-94 -260z" />
<glyph unicode="X" horiz-adv-x="705" d="M342 296q-105 -138 -127 -171q-25 -38 -25 -53q1 -13 12.5 -17.5t40.5 -5.5q8 0 22 0.5t15 0.5v-52q-37 3 -145 3q-90 0 -125 -3v52q4 0 9 -0.5t7 -0.5q28 0 46.5 12.5t41.5 40.5q28 33 188 247q-154 212 -171 233q-34 44 -72 44q-15 0 -21 -1v51q37 -3 128 -3 q106 0 142 3v-51q-4 1 -33 1q-23 0 -31.5 -4.5t-8.5 -15.5t27 -53q28 -43 104 -145q72 98 96 133q31 46 31 65q0 12 -9 16t-37 4q-8 0 -20 -0.5t-13 -0.5v51q37 -3 135 -3q78 0 116 3v-51q-6 1 -18 1q-21 0 -37 -11t-36 -36q-31 -36 -170 -222q157 -218 183 -251 q26 -34 43 -45.5t44 -11.5q13 0 20 1v-52q-37 3 -140 3q-108 0 -150 -3v52q6 0 19 -0.5t20 -0.5q47 0 47 24q0 10 -32 60q-36 53 -116 163z" />
<glyph unicode="Y" horiz-adv-x="634" d="M442 49v-51q-7 0 -55 2t-72 2q-21 0 -129 -4v51q20 -1 38 -1q32 0 38 13q8 13 8 59q0 13 0.5 65.5t0.5 99.5q-12 21 -184 293q-29 48 -68 48q-13 0 -19 -1v51q38 -3 127 -3q104 0 141 3v-51l-13 1h-21q-25 0 -36 -4.5t-11 -18.5q0 -20 25 -62q9 -15 49.5 -79t65.5 -106 q104 163 120 190q20 34 20 54q0 13 -10 19t-39 7h-20l-12 -1v51q38 -3 132 -3q79 0 116 3v-51q-5 1 -15 1q-23 0 -38 -11.5t-34 -36.5q-43 -57 -192 -291q0 -5 2 -167q0 -46 6 -57q8 -15 46 -15q20 0 33 1z" />
<glyph unicode="Z" horiz-adv-x="610" d="M564 -2q-67 4 -298 4q-126 0 -234 -2l-10 20q71 103 216.5 314.5t195.5 283.5q-159 0 -198 -1q-73 -3 -98 -23.5t-41 -93.5l-47 6q10 58 25 171q67 -4 235 -4q144 0 250 2l9 -20q-80 -111 -416 -593q62 -4 187 -4q33 0 48.5 0.5t39 2.5t34 7t25.5 14t22.5 23t15.5 34 t13 47l49 -5q-11 -68 -23 -183z" />
<glyph unicode="[" horiz-adv-x="285" d="M272 -162q-30 2 -80 2q-73 0 -111 -2q3 67 3 439q0 371 -3 438q48 -2 111 -2q50 0 82 2v-50q-38 2 -109 2q-2 -33 -2 -391q0 -357 2 -390q69 0 107 1v-49z" />
<glyph unicode="\" horiz-adv-x="395" d="M320 -115l-300 853h61l300 -853h-61z" />
<glyph unicode="]" horiz-adv-x="285" d="M13 715q30 -2 80 -2q73 0 111 2q-3 -68 -3 -439q0 -370 3 -438q-48 2 -111 2q-50 0 -82 -2v50q37 -2 109 -2q2 33 2 391q0 357 -2 390q-69 0 -107 -1v49z" />
<glyph unicode="^" horiz-adv-x="538" d="M450 348h-66l-114 253l-115 -253h-68l152 320h64z" />
<glyph unicode="_" horiz-adv-x="492" d="M494 -122h-496v50h496v-50z" />
<glyph unicode="`" horiz-adv-x="280" d="M52 695l75 38q35 -72 104 -186l-26 -15q-102 104 -153 163z" />
<glyph unicode="a" horiz-adv-x="509" d="M326 59q-72 -71 -155 -71q-59 0 -99.5 38.5t-40.5 97.5q0 78 88 109q36 12 170 36q28 5 36 13.5t8 34.5q0 64 -22.5 91t-75.5 27q-42 0 -62 -18q-15 -15 -16 -45q-3 -32 -44 -32t-41 43q0 45 51.5 75.5t139.5 30.5q70 0 108 -29.5t38 -103.5q0 -18 -3 -99.5t-3 -124.5 q0 -52 10.5 -68t32.5 -16q16 0 39 9l12 -47q-44 -20 -87 -20q-38 0 -58 14t-26 55zM330 195q0 24 -20 24q-22 0 -66.5 -9t-71.5 -18q-59 -19 -59 -66q0 -33 24 -53.5t58 -20.5q25 0 53.5 10.5t45.5 25.5q21 17 28.5 40.5t7.5 66.5z" />
<glyph unicode="b" horiz-adv-x="567" d="M149 25l-26 -48l-41 9q10 90 10 376q0 124 -2 242q-1 45 -13 59t-44 14q-16 0 -25 -1v51q98 0 156 17l10 -13q-7 -50 -8 -333q36 41 89.5 67t101.5 26q80 0 124.5 -61t44.5 -167q0 -122 -63 -197.5t-171 -75.5q-80 0 -143 35zM165 215q0 -51 11 -99q8 -33 41.5 -53 t78.5 -20q65 0 107 48t42 137q0 196 -132 196q-43 0 -87 -32.5t-52 -74.5q-9 -54 -9 -102z" />
<glyph unicode="c" horiz-adv-x="460" d="M449 103q-76 -118 -206 -118q-93 0 -147.5 63.5t-54.5 167.5q0 122 69 198t180 76q62 0 98.5 -25.5t36.5 -62.5q0 -52 -46 -52q-37 0 -43 33q-5 31 -19.5 41.5t-47.5 10.5q-60 0 -103.5 -51.5t-43.5 -137.5q0 -93 40 -144t107 -51q39 0 76.5 21.5t63.5 60.5z" />
<glyph unicode="d" horiz-adv-x="597" d="M568 3q-103 -2 -157 -14l-10 11q1 10 3 39.5t3 38.5q-80 -90 -176 -90q-83 0 -136.5 57t-53.5 164q0 70 21.5 125.5t56.5 89t77.5 50.5t88.5 17q78 0 123 -28q0 81 -3 165q-1 31 -13 40t-43 9q-17 0 -24 -1v51q94 0 156 18l9 -13q-7 -50 -8 -354q0 -159 2 -237 q1 -59 9.5 -75t36.5 -16q20 0 38 2v-49zM408 275q0 80 -17 113q-27 48 -104 48q-72 0 -117.5 -57t-45.5 -148q0 -86 37.5 -132t98.5 -46q32 0 66 16.5t54 42.5q28 38 28 163z" />
<glyph unicode="e" horiz-adv-x="480" d="M460 105q-80 -120 -209 -120q-99 0 -154.5 64.5t-55.5 171.5q0 120 65 194.5t171 74.5q80 0 124.5 -48t44.5 -131q0 -25 -8.5 -34.5t-29.5 -11.5q-77 -4 -287 -4q-2 -12 -2 -32q0 -78 41 -127t116 -49q84 0 144 82zM131 323q0 -13 12 -13q18 -1 70 -1q115 0 134 10 q13 7 13 29q0 45 -27.5 66.5t-71.5 21.5q-38 0 -72 -21.5t-52 -65.5q-6 -16 -6 -26z" />
<glyph unicode="f" horiz-adv-x="320" d="M291 -2q-108 4 -142 4q-23 0 -61.5 -2t-50.5 -2v50q12 -1 26 -1q38 0 46 14q7 16 7 59q1 80 1 299q-30 0 -70 -2v52q39 0 51 4q10 4 14.5 14.5t8.5 38.5q11 86 40 131q57 88 161 88q44 0 70.5 -19.5t26.5 -50.5q0 -22 -12.5 -32.5t-30.5 -10.5q-32 0 -41 29 q-5 18 -13.5 25t-26.5 7q-23 0 -42.5 -14.5t-30.5 -35.5q-26 -49 -28 -171q81 0 120 3v-56q-33 1 -120 1q-1 -36 -1 -115q0 -124 1 -185q1 -49 8 -61q8 -12 45 -12q29 0 44 1v-50z" />
<glyph unicode="g" horiz-adv-x="518" d="M137 -2q-98 14 -98 90q0 64 88 112q-22 17 -36 48.5t-14 66.5q0 74 54 124t142 50q82 0 123 -44q6 35 27.5 56t53.5 21q46 0 46 -36q0 -35 -32 -35q-8 0 -18.5 3t-17.5 3q-21 0 -21 -35q0 -17 5 -39q8 -30 8 -52q0 -79 -51.5 -127.5t-139.5 -48.5q-36 0 -74 10 q-8 2 -17 2q-11 0 -21 -5q-34 -19 -34 -53q0 -23 18 -33t65 -10q27 0 88 1t75 1q146 0 146 -111q0 -97 -79.5 -154t-201.5 -57q-88 0 -139.5 34.5t-51.5 88.5q0 75 107 129zM418 -78q0 39 -23 56.5t-96 17.5q-51 0 -67 -2q-46 -4 -79 -28q-46 -36 -46 -78q0 -41 38 -62 t101 -21q73 0 122.5 32.5t49.5 84.5zM367 318q0 50 -26 83.5t-76 33.5q-49 0 -77 -29.5t-28 -75.5q0 -122 99 -122q51 0 79.5 28t28.5 82z" />
<glyph unicode="h" horiz-adv-x="612" d="M266 -2q-9 0 -30.5 1.5t-42.5 2t-41 0.5q-24 0 -66.5 -2t-53.5 -2v50q13 -1 26 -1q37 0 46 15q7 12 7 59q1 48 1 209q0 225 -2 283q-1 43 -12.5 53.5t-44.5 10.5q-15 0 -24 -1v51q98 0 158 17l10 -13q-6 -44 -7 -329q99 87 190 87q86 0 110 -86q13 -49 13 -155v-127 q0 -53 6 -62q7 -12 41 -12q15 0 31 1v-50q-116 4 -118 4q-24 0 -63.5 -2t-52.5 -2v50q12 -1 26 -1q32 0 41 16q14 22 14 111q0 170 -26 213q-21 34 -70 34q-31 0 -66.5 -17.5t-56.5 -46.5t-21 -103q0 -92 1 -133q1 -52 8 -62q6 -12 39 -12q15 0 30 1v-50z" />
<glyph unicode="i" horiz-adv-x="305" d="M275 -2q-100 4 -116 4q-25 0 -71.5 -2t-48.5 -2v50q13 -1 27 -1q39 0 46 13q4 7 6 65q1 43 1 123q0 110 -6 150q-5 24 -49 24q-15 0 -27 -1v50q89 0 156 18l11 -12q-9 -86 -9 -220q0 -91 1 -132q2 -56 7 -66q7 -12 41 -12q15 0 31 1v-50zM200 652q0 -26 -16 -41.5 t-40 -15.5t-39 15.5t-15 40.5q0 26 15 42t41 16q25 0 39.5 -16t14.5 -41z" />
<glyph unicode="j" horiz-adv-x="287" d="M198 477q-9 -86 -9 -223q0 -27 1 -126t1 -127q0 -96 -27 -154q-22 -50 -62 -73.5t-83 -23.5q-38 0 -60 16t-22 42q0 20 12.5 31t29.5 11q29 0 42 -31q5 -13 21 -13q14 0 29 10.5t22 32.5q19 55 19 337q0 180 -6 210q-3 13 -12.5 19.5t-36.5 6.5q-14 0 -26 -1v50 q89 0 156 18zM194 652q0 -26 -16 -41.5t-40 -15.5t-39 15.5t-15 40.5q0 26 15 42t40 16q26 0 40.5 -16t14.5 -41z" />
<glyph unicode="k" horiz-adv-x="549" d="M267 -2q-108 4 -116 4q-24 0 -66 -2t-53 -2v50q11 -1 25 -1q39 0 47 14q5 9 7 60q1 52 1 241q0 121 -2 249q-1 45 -12.5 55.5t-44.5 10.5q-16 0 -25 -1v51q101 0 159 17l10 -12q-8 -49 -8 -426q0 -21 3 -26q4 -9 20 -9q29 0 64 34q83 76 83 106q0 16 -27 16q-15 0 -34 -2 v50q44 -4 119 -4q31 0 105 4v-50q-9 1 -24 1q-36 0 -72 -39q-40 -44 -124 -126q97 -122 156 -179q21 -20 34.5 -27t34.5 -7q14 0 22 1v-50q-46 2 -56 2q-14 0 -71 -3q-34 30 -130 152q-43 53 -58.5 67.5t-29.5 14.5q-15 0 -15 -20q0 -62 1 -91q3 -52 9 -62q7 -12 38 -12 q16 0 30 1v-50z" />
<glyph unicode="l" horiz-adv-x="298" d="M268 -2q-108 4 -113 4q-24 0 -68.5 -2t-54.5 -2v50q12 -1 26 -1q34 0 44 13q7 9 9 61q1 69 1 209q0 167 -2 283q-1 43 -13 53.5t-45 10.5q-15 0 -24 -1v51q99 0 157 17l11 -13q-7 -94 -7 -344q0 -160 1 -266q1 -49 8 -61q8 -13 39 -13q17 0 31 1v-50z" />
<glyph unicode="m" horiz-adv-x="911" d="M270 -2q-116 4 -120 4q-24 0 -62.5 -2t-50.5 -2v51q13 -1 26 -1q38 0 46 14q5 8 7 60q1 47 1 123q0 128 -6 153q-5 24 -50 24q-15 0 -24 -1v50q92 0 153 17l10 -12q-4 -38 -6 -77q98 90 186 90q84 0 108 -93q44 42 97.5 67.5t97.5 25.5q89 0 111 -88q12 -44 12 -153v-126 q0 -53 6 -62q8 -12 41 -12q16 0 30 1v-51q-112 4 -117 4q-24 0 -64 -2t-50 -2v51q11 -1 24 -1q33 0 41 15q14 25 14 114q0 171 -22 207q-22 34 -67 34q-34 0 -67.5 -16t-53.5 -43q-21 -29 -21 -101v-136q0 -49 7 -62q6 -12 39 -12q15 0 30 1v-51q-116 4 -117 4 q-23 0 -61.5 -2t-51.5 -2v51q12 -1 24 -1q35 0 43 14q11 19 11 115q0 99 -3.5 139t-17.5 64q-22 37 -66 37q-31 0 -67 -15.5t-56 -47.5q-21 -33 -21 -101q0 -90 1 -131q1 -52 8 -62q6 -12 39 -12q15 0 29 1v-51z" />
<glyph unicode="n" horiz-adv-x="613" d="M271 -2q-9 0 -30.5 1.5t-42.5 2t-41 0.5q-24 0 -66.5 -2t-53.5 -2v50q13 -1 26 -1q37 0 46 15q7 12 7 59q1 48 1 129q0 123 -6 148q-5 24 -50 24q-15 0 -24 -1v50q93 0 153 17l10 -12q-5 -54 -6 -77q97 90 191 90q86 0 110 -86q13 -49 13 -155v-127q0 -53 6 -62 q8 -12 41 -12q15 0 31 1v-50q-116 4 -118 4q-24 0 -63.5 -2t-52.5 -2v50q12 -1 26 -1q32 0 42 16q13 22 13 111q0 170 -26 213q-19 31 -70 31q-31 0 -66.5 -17.5t-56.5 -46.5t-21 -100q0 -92 1 -133q1 -52 8 -62q6 -12 39 -12q15 0 30 1v-50z" />
<glyph unicode="o" d="M504 255q0 -120 -66.5 -195t-178.5 -75q-98 0 -158 68t-60 170q0 117 69 192t180 75q96 0 155 -65.5t59 -169.5zM423 223q0 54 -12 98t-47.5 77.5t-90.5 33.5q-68 0 -108.5 -50t-40.5 -127q0 -103 42 -158t112 -55q63 0 104 47.5t41 133.5z" />
<glyph unicode="p" horiz-adv-x="581" d="M272 -242q-124 4 -126 4q-24 0 -68.5 -2t-53.5 -2v50q12 -1 26 -1q37 0 46 16q5 11 7 57q2 55 2 279q0 167 -3 213q-1 30 -10 39q-11 11 -42 11q-15 0 -25 -1v50q92 0 153 17l10 -12q-5 -45 -6 -75q38 39 90 64.5t99 25.5q78 0 123.5 -60t45.5 -168q0 -124 -63.5 -198.5 t-167.5 -74.5q-70 0 -129 33q0 -80 2 -142q1 -45 11 -60q7 -14 46 -14q17 0 33 1v-50zM179 211q0 -51 11 -95q8 -33 42 -52.5t77 -19.5q66 0 107 49.5t41 135.5q0 192 -130 192q-41 0 -80.5 -25.5t-52.5 -58.5q-15 -38 -15 -126z" />
<glyph unicode="q" horiz-adv-x="572" d="M561 -241q-13 0 -53 2t-66 2q-23 0 -66.5 -2t-59.5 -2v49q16 -1 40 -1q34 1 42 13q9 11 10 59q2 114 2 203q-84 -94 -184 -94q-79 0 -132.5 59.5t-53.5 163.5q0 128 70 204t177 76q81 0 143 -33l26 50l39 -7q-9 -97 -9 -373q0 -84 2 -248q2 -51 7 -60q8 -13 39 -13 q14 0 27 1v-49zM408 264q0 94 -18 123q-30 47 -104 47q-67 0 -115 -54.5t-48 -151.5q0 -83 37.5 -128.5t96.5 -45.5q37 0 71 18.5t55 47.5q15 23 20 51.5t5 92.5z" />
<glyph unicode="r" horiz-adv-x="413" d="M288 -2q-63 4 -138 4q-13 0 -113 -4v50q12 -1 25 -1q38 0 47 16q7 11 7 56q0 24 0.5 70.5t0.5 60.5q0 112 -6 148q-5 24 -48 24q-14 0 -26 -1v50q94 0 151 17l12 -11q-1 -10 -6 -87q73 99 149 99q26 0 41.5 -12.5t15.5 -36.5q0 -26 -13 -39.5t-35 -13.5q-21 0 -35 14 q-8 8 -24 8q-17 0 -42 -19.5t-40 -52.5q-18 -40 -18 -96q0 -84 1 -120q1 -48 9 -62q8 -12 42 -12q26 0 43 1v-50z" />
<glyph unicode="s" horiz-adv-x="413" d="M269 262q62 -29 86 -60.5t24 -71.5q0 -64 -48.5 -104.5t-141.5 -40.5q-74 0 -118 28t-44 71q0 22 12 34.5t30 12.5q36 0 43 -36q11 -59 86 -59q51 0 76 20.5t25 49.5t-16 47t-58 38l-75 35q-52 24 -74 51t-22 74q0 57 48 97.5t135 40.5q64 0 96.5 -23.5t32.5 -59.5 q0 -41 -42 -41q-32 0 -40 33q-10 38 -66 38q-41 0 -64.5 -19t-23.5 -49q0 -25 15.5 -41t57.5 -35z" />
<glyph unicode="t" horiz-adv-x="321" d="M311 16q-48 -25 -114 -25q-62 0 -82 44q-14 28 -14 99q0 43 0.5 90t1.5 104t1 91q-25 0 -71 -2v48q47 4 66 22q23 20 42 109h44q-2 -67 -3 -124q80 0 118 3v-56q-29 1 -119 1q-1 -137 -1 -213q0 -53 4 -101q3 -31 15 -44.5t38 -13.5q23 0 62 13z" />
<glyph unicode="u" horiz-adv-x="612" d="M580 3q-77 0 -151 -14l-9 8l4 72q-82 -83 -175 -83q-70 0 -108.5 36.5t-38.5 133.5q0 16 2 90t2 104q0 45 -8 57q-11 15 -39 15q-16 0 -31 -1v50q100 0 157 17l10 -11q-14 -105 -14 -267q0 -89 17 -118q22 -37 82 -37q36 0 72.5 18t54.5 50q18 33 18 103q0 93 -1 124 q-1 45 -8 57q-10 15 -40 15q-17 0 -30 -1v50q100 0 157 17l9 -11q-12 -90 -12 -261q0 -115 7 -142q6 -23 34 -23q15 0 39 2v-50z" />
<glyph unicode="v" horiz-adv-x="526" d="M288 -6h-63q-28 86 -147 372q-16 39 -28 49.5t-32 10.5q-10 0 -18 -1v50q44 -3 123 -3q71 0 108 3v-50q-11 1 -30 1q-44 0 -44 -26q0 -19 33 -103q57 -139 81 -205q80 190 92 220q28 69 28 89q0 25 -42 25q-17 0 -30 -1v50q59 -4 105 -4q59 0 102 4v-50q-7 1 -21 1 q-16 0 -28 -11.5t-28 -47.5q-109 -242 -161 -373z" />
<glyph unicode="w" horiz-adv-x="754" d="M252 -6h-62q-62 205 -116 369q-13 40 -24.5 51.5t-31.5 11.5q-9 0 -18 -1v50q41 -3 123 -3q69 0 106 3v-50q-10 1 -24 1q-27 0 -39 -6t-12 -22q0 -19 20 -90q15 -51 37 -124t24 -80q6 19 34.5 99t50.5 146.5t39 124.5h60q35 -120 121 -369q6 23 30 102t31 107 q18 64 18 84q0 28 -46 28q-16 0 -28 -1v50q52 -4 100 -4q65 0 108 4v-50q-7 1 -19 1q-18 0 -30.5 -14t-28.5 -60q-19 -55 -117 -358h-62q-26 83 -119 346q-18 -52 -60.5 -168t-64.5 -178z" />
<glyph unicode="x" horiz-adv-x="551" d="M225 -2q-9 0 -31.5 1.5t-42.5 2t-35 0.5q-23 0 -61 -2t-46 -2v50q8 -1 17 -1q24 0 40 11.5t47 47.5l112 126l-122 145q-25 29 -39 39t-27 10q-9 0 -19 -1v50q49 -4 126 -4q47 0 115 4v-50q-8 1 -28 1q-39 0 -39 -20q0 -11 32 -50l64 -76l64 79q27 33 27 48q0 19 -42 19 q-17 0 -26 -1v50q68 -4 99 -4q61 0 109 4v-50q-6 1 -16 1q-28 0 -73 -53l-110 -129l131 -146q27 -30 40.5 -40.5t31.5 -10.5q12 0 20 1v-50q-6 0 -56 2t-72 2q-21 0 -67 -2t-49 -2v50q11 -1 24 -1q39 0 39 19q0 13 -24 41l-80 89l-73 -88q-23 -29 -23 -42q0 -19 32 -19 q22 0 31 1v-50z" />
<glyph unicode="y" horiz-adv-x="523" d="M238 2q-22 55 -161 367q-12 27 -22.5 40t-17 15t-18.5 2t-19 -1v50q44 -3 115 -3q80 0 117 3v-50q-11 1 -33 1q-40 0 -40 -27q0 -22 37 -105q14 -32 86 -197q55 137 76 195q32 88 32 108q0 26 -43 26q-16 0 -30 -1v50q60 -4 107 -4q56 0 99 4v-50q-8 1 -19 1 q-19 0 -32 -18t-42 -87q-111 -272 -185 -438q-29 -65 -64.5 -100.5t-87.5 -35.5q-30 0 -45 13.5t-15 33.5q0 46 43 46q6 0 18.5 -4.5t22.5 -4.5q31 0 57 41q26 42 64 130z" />
<glyph unicode="z" horiz-adv-x="484" d="M426 -1q-160 2 -209 2q-28 0 -72.5 -0.5t-78 -1t-34.5 -0.5l-8 18q225 300 299 408q-116 0 -153.5 -4.5t-52.5 -18.5q-24 -20 -37 -74l-41 6q17 61 28 142q22 0 56.5 -1t65 -1.5t61.5 -0.5q118 0 181 3l8 -20q-36 -49 -136.5 -186t-158.5 -217q61 -3 107 -3q59 0 99 11 q28 8 44 27t30 65l41 -8q-11 -36 -39 -146z" />
<glyph unicode="{" horiz-adv-x="317" d="M20 253v45q59 3 75.5 29.5t16.5 105.5v121q0 84 40.5 126.5t154.5 42.5v-46q-66 0 -90.5 -23.5t-24.5 -101.5v-128q0 -69 -19.5 -102t-74.5 -46q54 -11 74.5 -41t20.5 -99v-140q0 -72 24 -96t90 -24v-46q-108 0 -150.5 35t-42.5 122v142q0 67 -19 95t-75 29z" />
<glyph unicode="|" horiz-adv-x="241" d="M155 725v-909h-70v909h70z" />
<glyph unicode="}" horiz-adv-x="317" d="M297 300v-45q-59 -3 -75.5 -29.5t-16.5 -105.5v-121q0 -84 -40.5 -126.5t-153.5 -42.5v45q66 0 90 24t24 102v128q0 69 19.5 102t74.5 46q-54 11 -74.5 41t-20.5 99v140q0 72 -24 95.5t-89 23.5v47q108 0 150 -34.5t42 -122.5v-142q0 -67 19 -95t75 -29z" />
<glyph unicode="~" horiz-adv-x="585" d="M98 213l-43 45q63 87 139 87q24 0 45.5 -8t69.5 -35q54 -30 82 -30q50 0 97 71l42 -45q-62 -87 -139 -87q-43 0 -98 32q-44 25 -62 32t-37 7q-54 0 -96 -69z" />
<glyph unicode="&#xa1;" horiz-adv-x="319" d="M114 268h51q2 -83 15.5 -238.5t13.5 -178.5q0 -67 -56 -67t-56 66q0 27 14 183t18 235zM137 479q26 0 42.5 -16t16.5 -46q0 -27 -17.5 -43.5t-42.5 -16.5t-41 16.5t-16 44.5t16 44.5t42 16.5z" />
<glyph unicode="&#xa2;" horiz-adv-x="475" d="M288 571v-84h13q63 0 99 -25t36 -62q0 -49 -47 -49q-36 0 -42 33q-5 28 -18 37t-41 10v-378q36 2 71.5 24t60.5 59l39 -28q-66 -103 -171 -116v-89h-46v87q-87 5 -136 66.5t-49 160.5q0 101 50 172t135 91v91h46zM134 243q0 -160 108 -186v367q-46 -16 -77 -64t-31 -117z " />
<glyph unicode="&#xa3;" horiz-adv-x="572" d="M511 -2q-144 3 -257 3q-178 0 -230 -2l4 51q47 12 85 45q56 49 56 169h-102v56h102q0 16 -0.5 51t-0.5 53q0 104 60.5 163.5t158.5 59.5q69 0 105.5 -28t36.5 -66q0 -54 -56 -54q-18 0 -30 10.5t-13 28.5q-2 30 -18 42.5t-47 12.5q-103 0 -107 -137q-2 -54 -2 -136h150 v-56h-152q-5 -61 -25 -107t-71 -86h123q133 0 162 14q17 8 26.5 26t15.5 62l50 -4q-10 -53 -24 -171z" />
<glyph unicode="&#xa4;" horiz-adv-x="552" d="M462 64l-62 65q-51 -40 -124 -40q-74 0 -123 38l-63 -64l-45 47l63 65q-41 56 -41 128q0 74 41 126l-63 65l45 46l62 -64q53 41 125 41q70 0 122 -40l62 63l45 -46l-62 -65q40 -50 40 -126q0 -75 -40 -127l64 -66zM416 303q0 64 -39.5 107t-99.5 43q-62 0 -102.5 -42.5 t-40.5 -105.5q0 -67 40 -110t103 -43q60 0 99.5 43.5t39.5 107.5z" />
<glyph unicode="&#xa5;" horiz-adv-x="647" d="M541 194h-181q0 -13 0.5 -38t1.5 -35q1 -51 5 -59q9 -14 45 -14q20 0 32 1v-51q-7 0 -54 2t-70 2q-20 0 -124 -4v51q19 -1 36 -1q31 0 38 12q7 13 7 57q0 9 0.5 35t0.5 42h-179v49h179v18q-24 38 -35 57h-144v50h112q-103 158 -106 162q-30 45 -67 45q-12 0 -18 -1v51 q36 -3 124 -3q100 0 136 3v-51h-12q-13 1 -21 1q-45 0 -46 -22q0 -17 25 -58q12 -19 50.5 -78t57.5 -88q17 27 57 87.5t54 82.5q19 33 19 51q0 12 -9.5 18t-36.5 7q-8 0 -20 -1h-11v51q36 -3 128 -3q76 0 112 3v-51q-4 1 -14 1q-23 0 -37.5 -10.5t-33.5 -35.5 q-95 -135 -113 -161h113v-50h-146q-3 -4 -36 -55v-20h181v-49z" />
<glyph unicode="&#xa6;" horiz-adv-x="241" d="M155 725v-386h-70v386h70zM155 202v-386h-70v386h70z" />
<glyph unicode="&#xa7;" horiz-adv-x="483" d="M366 214q0 29 -23 63.5t-100 99.5q-5 5 -13 11.5t-19 15t-16 12.5q-6 5 -14 5q-9 0 -18 -6q-51 -32 -51 -78q0 -34 21.5 -66.5t83.5 -89.5q31 -27 61 -51q9 -7 19 -7t20 6q49 34 49 85zM332 80q64 -70 64 -132q0 -59 -53 -104t-138 -45q-68 0 -109.5 26t-41.5 69 q0 20 13 34t35 14q21 0 30.5 -10t17.5 -39q9 -39 67 -39q46 0 71.5 23t25.5 59q0 32 -26.5 68t-107.5 107q-80 70 -112 114t-32 86q0 94 113 148q-47 46 -47 109q0 65 54 107t135 42q62 0 99 -24t37 -67q0 -22 -12 -36t-33 -14q-42 0 -46 39q-2 27 -15 37.5t-46 10.5 q-41 0 -68.5 -22.5t-27.5 -57.5q0 -34 19.5 -60.5t94.5 -86.5q91 -73 120.5 -115.5t29.5 -84.5q0 -96 -111 -156z" />
<glyph unicode="&#xa8;" horiz-adv-x="277" d="M55 572q-19 0 -32 12.5t-13 33.5q0 20 13 33t33 13t32.5 -13t12.5 -33t-13 -33t-33 -13zM222 572q-20 0 -32.5 12.5t-12.5 33.5q0 20 12.5 33t33.5 13q19 0 31.5 -13t12.5 -33t-13 -33t-32 -13z" />
<glyph unicode="&#xa9;" horiz-adv-x="849" d="M54 352q0 156 106 262t263 106q159 0 265.5 -105.5t106.5 -262.5q0 -156 -106 -261t-265 -105t-264.5 105t-105.5 261zM98 352q0 -140 92.5 -233.5t233.5 -93.5t234 93.5t93 233.5q0 141 -93.5 235t-234.5 94q-140 0 -232.5 -94.5t-92.5 -234.5zM603 227 q-72 -97 -191 -97q-92 0 -147 60.5t-55 154.5q0 111 62 175t161 64q31 0 60 -9q29 -8 30 -8q12 0 12 13l36 3q5 -72 15 -137l-40 -5q-12 49 -37.5 73t-82.5 24q-62 0 -103.5 -46.5t-41.5 -129.5q0 -85 43 -130.5t104 -45.5q84 0 140 71z" />
<glyph unicode="&#xaa;" horiz-adv-x="407" d="M259 354q-53 -53 -118 -53q-46 0 -77.5 29.5t-31.5 73.5q0 61 68 85q17 6 35.5 10t50 9t44.5 7q22 5 28 11t6 23q0 46 -17 64.5t-55 18.5q-27 0 -44 -13q-12 -10 -13 -32q-3 -25 -36 -25q-35 0 -35 35q0 34 40.5 58t109.5 24q57 0 87 -23t30 -79q0 -14 -2.5 -72t-2.5 -91 q0 -38 8 -49.5t25 -11.5q16 0 29 5l9 -41q-33 -14 -72 -14q-29 0 -45 10.5t-21 40.5zM261 455q0 18 -15 18q-38 0 -99 -18q-43 -14 -43 -48q0 -23 17 -37t42 -14q42 0 71 24q27 23 27 75z" />
<glyph unicode="&#xab;" horiz-adv-x="442" d="M246 82l-27 -23q-96 94 -193 177v21q122 100 194 169l24 -22q-47 -60 -133 -156q101 -121 135 -166zM417 82l-26 -23q-92 90 -193 177v21q122 100 194 169l24 -22q-47 -60 -133 -156q99 -119 134 -166z" />
<glyph unicode="&#xac;" horiz-adv-x="605" d="M516 41h-61v193h-388v61h449v-254z" />
<glyph unicode="&#xad;" horiz-adv-x="322" d="M48 292q23 -2 114 -2q75 0 112 2v-73q-29 1 -111 1q-77 0 -115 -1v73z" />
<glyph unicode="&#xae;" horiz-adv-x="849" d="M54 352q0 156 106 262t263 106q159 0 265.5 -105.5t106.5 -262.5q0 -156 -106 -261t-265 -105t-264.5 105t-105.5 261zM98 352q0 -140 92.5 -233.5t233.5 -93.5t234 93.5t93 233.5q0 141 -93.5 235t-234.5 94q-140 0 -232.5 -94.5t-92.5 -234.5zM414 139q-51 3 -85 3 q-15 0 -90 -3v38l9 -1h12q24 0 28 9q4 8 4 40q1 52 1 145q0 30 -0.5 76t-0.5 50q0 30 -4 37q-8 9 -27 9q-10 0 -21 -1v39q12 0 42 -1t44 -1q12 0 44.5 0.5t49.5 0.5q166 0 166 -113q0 -67 -53 -99q-24 -14 -32 -18q-8 -3 -8 -12q0 -4 7 -18q56 -86 80 -118q19 -24 57 -24h8 v-38q-22 2 -50 2q-25 0 -55 -2q-44 60 -110 178q-6 13 -27 13q-5 0 -16 0.5t-14 0.5q-8 0 -11 -2q-4 -2 -4 -19q0 -50 1 -81q1 -39 5 -45q5 -8 24 -8q3 0 14 0.5t12 0.5v-38zM358 390q0 -12 9 -14q14 -2 33 -2q52 0 82.5 17.5t30.5 68.5q0 77 -106 77q-39 0 -44 -9 q-4 -6 -4 -27q-1 -36 -1 -111z" />
<glyph unicode="&#xaf;" horiz-adv-x="277" d="M13 570v58h251v-58h-251z" />
<glyph unicode="&#xb0;" horiz-adv-x="307" d="M283 585q0 -58 -37 -94.5t-93 -36.5q-57 0 -94 35t-37 95q0 57 39 93t96 36t91.5 -34.5t34.5 -93.5zM237 584q0 41 -23.5 64.5t-59.5 23.5q-34 0 -58 -24.5t-24 -65.5q0 -40 24 -63t59 -23q36 0 59 24t23 64z" />
<glyph unicode="&#xb1;" horiz-adv-x="605" d="M334 175h-62v189h-194v60h194v189h62v-189h193v-60h-193v-189zM527 45h-449v60h449v-60z" />
<glyph unicode="&#xb2;" horiz-adv-x="368" d="M315 459q-41 2 -146 2q-91 0 -146 -2l-5 39q128 95 175 149t47 103q0 32 -18 50t-51 18q-35 0 -46.5 -13t-13.5 -39q-3 -26 -35 -26q-31 0 -31 35q0 31 34.5 58.5t94.5 27.5q67 0 100.5 -29.5t33.5 -81.5q0 -22 -6.5 -42t-26.5 -48.5t-64.5 -65.5t-113.5 -82q18 -1 61 -1 q64 0 83 2t28 9q14 11 23 50l35 -3q-5 -31 -12 -110z" />
<glyph unicode="&#xb3;" horiz-adv-x="368" d="M213 670q108 -11 108 -98q0 -56 -45 -89t-112 -33q-73 0 -102.5 24t-29.5 53q0 38 33 38q27 0 31 -27q6 -45 69 -45q42 0 65 19.5t23 55.5q0 77 -102 77q-4 0 -15 -0.5t-15 -0.5v43q6 -1 26 -1q86 0 86 78q0 23 -16 38.5t-49 15.5q-51 0 -54 -40q-3 -28 -31 -28 q-30 0 -30 30q0 31 30.5 56t88.5 25q62 0 94 -25t32 -66q0 -42 -22 -64t-63 -36z" />
<glyph unicode="&#xb4;" horiz-adv-x="280" d="M153 730l78 -35q-62 -69 -156 -163l-26 15q76 125 104 183z" />
<glyph unicode="&#xb5;" horiz-adv-x="612" d="M189 -209h-83v559q0 45 -8 57q-11 15 -39 15q-16 0 -31 -1v50q101 0 158 17l10 -11q-14 -105 -14 -267q0 -89 17 -118q22 -37 81 -37q36 0 72.5 18t54.5 50q18 33 18 103q0 93 -1 124q-1 45 -8 57q-10 15 -40 15q-17 0 -30 -1v50q100 0 157 17l9 -11q-12 -93 -12 -248 q0 -89 2 -116q2 -35 9.5 -50.5t29.5 -15.5q13 0 45 10l14 -46q-40 -21 -89 -21q-43 0 -63 17.5t-24 61.5q-78 -81 -164 -81q-53 0 -77 24q2 -129 6 -221z" />
<glyph unicode="&#xb6;" horiz-adv-x="590" d="M459 283q0 -14 1 -73t1 -104q0 -124 -27 -192q-25 -63 -75 -100t-113 -37q-48 0 -74.5 18.5t-26.5 44.5q0 20 12 33t32 13q25 0 46 -31q10 -15 46 -15q26 0 47.5 20t31.5 52q11 37 16.5 82.5t6 79.5t1.5 114q-21 -9 -78 -9q-105 0 -172.5 58.5t-67.5 180.5 q0 60 17.5 105.5t47.5 74t75 46t93.5 24t109.5 6.5q35 0 125 4v-51q-50 0 -63.5 -13t-13.5 -68q0 -25 2 -263zM241 418q0 -106 28.5 -145t84.5 -39q23 0 27 16q3 15 3 43q0 192 -5 275q-3 49 -42 49q-43 0 -65 -35q-31 -50 -31 -164z" />
<glyph unicode="&#xb7;" horiz-adv-x="223" d="M111 188q-25 0 -41.5 16t-16.5 46q0 27 17.5 43.5t42.5 16.5t41 -16.5t16 -44.5t-16 -44.5t-43 -16.5z" />
<glyph unicode="&#xb8;" horiz-adv-x="277" d="M50 -253v42q112 0 112 61q0 20 -17.5 32t-49.5 12l-8 16q26 57 39 92h40q-3 -8 -11 -29t-12 -31q84 -10 84 -77q0 -42 -31 -70t-68.5 -38t-77.5 -10z" />
<glyph unicode="&#xb9;" horiz-adv-x="368" d="M293 459q-8 0 -42 1t-53 1q-18 0 -54.5 -1t-48.5 -1v38q8 -1 23 -1q33 0 40 10q6 7 6 36q1 43 1 111q0 71 -1 102q0 33 -8 38q-7 4 -18 4q-21 0 -44 -5l-5 37q65 10 131 35l12 -9q-6 -43 -6 -174q0 -106 1 -139q1 -30 6 -37q5 -9 31 -9q19 0 29 1v-38z" />
<glyph unicode="&#xba;" horiz-adv-x="408" d="M379 502q0 -90 -51.5 -146t-139.5 -56q-76 0 -122.5 50.5t-46.5 127.5q0 88 53.5 144.5t139.5 56.5q75 0 121 -49t46 -128zM306 478q0 65 -24.5 110t-81.5 45q-50 0 -79 -37t-29 -95q0 -76 29.5 -116t80.5 -40q46 0 75 34.5t29 98.5z" />
<glyph unicode="&#xbb;" horiz-adv-x="442" d="M198 403l27 23q103 -101 193 -176v-21q-125 -102 -194 -170l-24 22q47 60 133 156q-124 152 -135 166zM27 403l26 23q102 -99 193 -176v-21q-115 -94 -194 -170l-24 22q47 60 133 156q-117 143 -134 166z" />
<glyph unicode="&#xbc;" horiz-adv-x="815" d="M521 629h53l-281 -629h-54zM291 234q-8 0 -42 1t-53 1q-18 0 -54.5 -1t-48.5 -1v38q8 -1 23 -1q33 0 40 10q6 7 6 36q1 44 1 111q0 71 -1 102q0 34 -8 39q-7 4 -18 4q-16 0 -44 -6l-5 37q65 10 131 35l12 -8q-6 -44 -6 -175q0 -106 1 -139q1 -30 6 -37q6 -9 31 -9 q19 0 29 1v-38zM747 -2q-60 3 -98 3q-14 0 -49 -1t-47 -1v38q9 -1 22 -1q31 0 39 9q7 10 7 36v28q-124 0 -186 -1l-6 27q43 53 203 264h50q-1 -41 -1 -107v-137q45 0 72 1l-5 -47q-26 1 -67 1v-28q0 -31 7 -38q8 -9 31 -9q17 0 28 1v-38zM622 155v165q-35 -49 -123 -165h123 z" />
<glyph unicode="&#xbd;" horiz-adv-x="815" d="M518 629h53l-281 -629h-54zM280 234q-8 0 -42 1t-53 1q-18 0 -54.5 -1t-48.5 -1v38q8 -1 23 -1q33 0 40 10q6 7 6 36q1 44 1 111q0 71 -1 102q0 34 -8 39q-7 4 -18 4q-16 0 -44 -6l-5 37q65 10 131 35l12 -8q-6 -44 -6 -175q0 -106 1 -139q1 -30 6 -37q6 -9 31 -9 q19 0 29 1v-38zM765 -1q-41 2 -146 2q-91 0 -146 -2l-5 39q128 95 175 149t47 103q0 32 -18 50t-51 18q-35 0 -46.5 -13t-13.5 -39q-3 -26 -35 -26q-31 0 -31 35q0 31 34.5 58.5t94.5 27.5q67 0 100.5 -29.5t33.5 -81.5q0 -22 -6.5 -42t-26.5 -48.5t-64.5 -65.5t-113.5 -82 q18 -1 61 -1q64 0 83 2t28 9q14 11 23 50l35 -3q-5 -31 -12 -110z" />
<glyph unicode="&#xbe;" horiz-adv-x="815" d="M546 629h53l-281 -629h-54zM235 445q108 -11 108 -97q0 -56 -45 -89.5t-112 -33.5q-73 0 -102.5 24.5t-29.5 53.5q0 38 33 38q27 0 31 -28q6 -45 69 -45q42 0 65 20t23 55q0 77 -102 77q-4 0 -15 -0.5t-15 -0.5v44q6 -1 26 -1q86 0 86 77q0 24 -16 39.5t-49 15.5 q-51 0 -54 -40q-3 -29 -31 -29q-30 0 -30 31t31 56t88 25q62 0 94 -25t32 -67t-22 -64t-63 -36zM767 -2q-60 3 -98 3q-14 0 -49 -1t-47 -1v38q9 -1 22 -1q31 0 39 9q7 10 7 36v28q-124 0 -186 -1l-6 27q43 53 203 264h50q-1 -41 -1 -107v-137q45 0 72 1l-5 -47q-26 1 -67 1 v-28q0 -31 7 -38q8 -9 31 -9q17 0 28 1v-38zM642 155v165q-35 -49 -123 -165h123z" />
<glyph unicode="&#xbf;" horiz-adv-x="453" d="M223 266l47 15q19 -41 19 -84t-19 -71t-77 -69q-40 -28 -56 -56.5t-16 -66.5q0 -45 25.5 -70t72.5 -25q49 0 69 22t21 63t47 41q45 0 45 -51q0 -49 -51 -91t-141 -42q-84 0 -133.5 41t-49.5 106q0 58 25.5 97t98.5 86q41 25 61.5 47t20.5 56q0 23 -9 52zM246 479 q25 0 42 -16.5t17 -45.5q0 -27 -17.5 -43.5t-42.5 -16.5q-26 0 -41.5 16.5t-15.5 44.5t16 44.5t42 16.5z" />
<glyph unicode="&#xc0;" horiz-adv-x="688" d="M239 -2q-53 4 -114 4q-54 0 -122 -4v51q2 0 7.5 -0.5t8.5 -0.5q32 0 49 18.5t38 67.5q205 477 229 547h61q31 -99 212 -580q12 -32 25 -42.5t37 -10.5q2 0 8.5 0.5t7.5 0.5v-50q-38 3 -123 3q-75 0 -128 -4v51q12 -1 38 -1q24 0 33.5 6t9.5 20q0 29 -48 150q-5 15 -14 16 q-13 3 -118 3q-71 0 -100 -1q-15 0 -23 -17q-54 -129 -54 -151q0 -15 9 -20.5t31 -5.5q28 0 40 1v-51zM350 561q-81 -192 -99 -238q-4 -9 -4 -15q0 -5 6 -8q9 -3 84 -3q63 0 87 1q12 0 12 11q0 2 -2.5 9t-2.5 8q-61 178 -81 235zM220 841l63 54q40 -47 151 -160l-21 -22 q-116 72 -193 128z" />
<glyph unicode="&#xc1;" horiz-adv-x="688" d="M239 -2q-53 4 -114 4q-54 0 -122 -4v51q2 0 7.5 -0.5t8.5 -0.5q32 0 49 18.5t38 67.5q205 477 229 547h61q31 -99 212 -580q12 -32 25 -42.5t37 -10.5q2 0 8.5 0.5t7.5 0.5v-50q-38 3 -123 3q-75 0 -128 -4v51q12 -1 38 -1q24 0 33.5 6t9.5 20q0 29 -48 150q-5 15 -14 16 q-13 3 -118 3q-71 0 -100 -1q-15 0 -23 -17q-54 -129 -54 -151q0 -15 9 -20.5t31 -5.5q28 0 40 1v-51zM350 561q-81 -192 -99 -238q-4 -9 -4 -15q0 -5 6 -8q9 -3 84 -3q63 0 87 1q12 0 12 11q0 2 -2.5 9t-2.5 8q-61 178 -81 235zM439 895l63 -54q-77 -56 -193 -128l-21 22 q111 113 151 160z" />
<glyph unicode="&#xc2;" horiz-adv-x="688" d="M239 -2q-53 4 -114 4q-54 0 -122 -4v51q2 0 7.5 -0.5t8.5 -0.5q32 0 49 18.5t38 67.5q205 477 229 547h61q31 -99 212 -580q12 -32 25 -42.5t37 -10.5q2 0 8.5 0.5t7.5 0.5v-50q-38 3 -123 3q-75 0 -128 -4v51q12 -1 38 -1q24 0 33.5 6t9.5 20q0 29 -48 150q-5 15 -14 16 q-13 3 -118 3q-71 0 -100 -1q-15 0 -23 -17q-54 -129 -54 -151q0 -15 9 -20.5t31 -5.5q28 0 40 1v-51zM350 561q-81 -192 -99 -238q-4 -9 -4 -15q0 -5 6 -8q9 -3 84 -3q63 0 87 1q12 0 12 11q0 2 -2.5 9t-2.5 8q-61 178 -81 235zM511 730l-24 -24q-8 6 -56 40t-69 49 q-79 -55 -124 -89l-23 24q42 42 122 128h58q69 -79 116 -128z" />
<glyph unicode="&#xc3;" horiz-adv-x="688" d="M239 -2q-53 4 -114 4q-54 0 -122 -4v51q2 0 7.5 -0.5t8.5 -0.5q32 0 49 18.5t38 67.5q205 477 229 547h61q31 -99 212 -580q12 -32 25 -42.5t37 -10.5q2 0 8.5 0.5t7.5 0.5v-50q-38 3 -123 3q-75 0 -128 -4v51q12 -1 38 -1q24 0 33.5 6t9.5 20q0 29 -48 150q-5 15 -14 16 q-13 3 -118 3q-71 0 -100 -1q-15 0 -23 -17q-54 -129 -54 -151q0 -15 9 -20.5t31 -5.5q28 0 40 1v-51zM350 561q-81 -192 -99 -238q-4 -9 -4 -15q0 -5 6 -8q9 -3 84 -3q63 0 87 1q12 0 12 11q0 2 -2.5 9t-2.5 8q-61 178 -81 235zM358 821l33 -13q24 -10 44 -10q17 0 27 10.5 t19 36.5l35 -9q-14 -53 -34.5 -76.5t-50.5 -23.5q-29 0 -65 14l-30 11q-35 14 -48 14q-15 0 -24.5 -10.5t-20.5 -36.5l-34 12q34 97 90 97q20 0 59 -16z" />
<glyph unicode="&#xc4;" horiz-adv-x="688" d="M239 -2q-53 4 -114 4q-54 0 -122 -4v51q2 0 7.5 -0.5t8.5 -0.5q32 0 49 18.5t38 67.5q205 477 229 547h61q31 -99 212 -580q12 -32 25 -42.5t37 -10.5q2 0 8.5 0.5t7.5 0.5v-50q-38 3 -123 3q-75 0 -128 -4v51q12 -1 38 -1q24 0 33.5 6t9.5 20q0 29 -48 150q-5 15 -14 16 q-13 3 -118 3q-71 0 -100 -1q-15 0 -23 -17q-54 -129 -54 -151q0 -15 9 -20.5t31 -5.5q28 0 40 1v-51zM350 561q-81 -192 -99 -238q-4 -9 -4 -15q0 -5 6 -8q9 -3 84 -3q63 0 87 1q12 0 12 11q0 2 -2.5 9t-2.5 8q-61 178 -81 235zM272 737q-19 0 -32.5 13t-13.5 34 q0 20 13.5 33.5t34.5 13.5q20 0 33 -13.5t13 -33.5t-13.5 -33.5t-34.5 -13.5zM457 737q-20 0 -33.5 13t-13.5 34q0 20 13.5 33.5t34.5 13.5q20 0 33 -13.5t13 -33.5t-13.5 -33.5t-33.5 -13.5z" />
<glyph unicode="&#xc5;" horiz-adv-x="688" d="M239 -2q-53 4 -114 4q-54 0 -122 -4v51q2 0 7.5 -0.5t8.5 -0.5q32 0 49 18.5t38 67.5q205 477 229 547h61q31 -99 212 -580q12 -32 25 -42.5t37 -10.5q2 0 8.5 0.5t7.5 0.5v-50q-38 3 -123 3q-75 0 -128 -4v51q12 -1 38 -1q24 0 33.5 6t9.5 20q0 29 -48 150q-5 15 -14 16 q-13 3 -118 3q-71 0 -100 -1q-15 0 -23 -17q-54 -129 -54 -151q0 -15 9 -20.5t31 -5.5q28 0 40 1v-51zM350 561q-81 -192 -99 -238q-4 -9 -4 -15q0 -5 6 -8q9 -3 84 -3q63 0 87 1q12 0 12 11q0 2 -2.5 9t-2.5 8q-61 178 -81 235zM364 896q41 0 66.5 -25t25.5 -64 q0 -40 -26.5 -66t-66.5 -26t-66.5 25t-26.5 64q0 40 27 66t67 26zM363 862q-22 0 -36.5 -15t-14.5 -41q0 -24 14 -40t37 -16q22 0 36.5 15.5t14.5 40.5q0 26 -14.5 41t-36.5 15z" />
<glyph unicode="&#xc6;" horiz-adv-x="986" d="M262 -2q-52 4 -131 4q-67 0 -131 -4v51q1 0 12 -0.5t14 -0.5q46 0 95 85q175 296 241 409q24 42 24 59q0 25 -54 25q-20 0 -32 -1v51q111 -3 246 -3q295 0 345 3q3 -76 14 -159l-46 -3q-10 71 -40 90q-25 15 -132 15q-59 0 -80 -2q-20 -1 -22 -17q-5 -27 -5 -184 q0 -24 11 -28q10 -5 77 -5q89 0 107 20q13 14 17 61h44q-3 -75 -3 -114q0 -17 1 -56t1 -50h-45q-4 55 -23 67q-22 16 -101 16q-67 0 -78 -7q-8 -5 -8 -21q1 -200 13 -218q9 -14 31.5 -20.5t80.5 -6.5q112 0 149 21q30 18 50 108l49 -4q-7 -38 -24 -180q-67 2 -394 2 q-9 0 -123 -3v51q7 0 19.5 -0.5t15.5 -0.5q35 0 42 12q7 13 7 60v98q0 31 -12 37q-10 5 -99 5q-72 0 -99 -1q-15 -1 -28 -23q-8 -12 -59 -103q-21 -38 -21 -59q0 -24 42 -26q7 0 24 0.5t18 0.5v-51zM312 328q0 -8 5 -10q10 -3 74 -3q54 0 81 1q14 0 19 8t5 35q0 206 -1 231 t-12 25q-9 0 -23 -24q-68 -111 -132 -226q-16 -29 -16 -37z" />
<glyph unicode="&#xc7;" horiz-adv-x="651" d="M256 -262v43q117 0 117 63q0 46 -71 46l-8 17q13 29 33 78q-128 6 -204.5 99t-76.5 236q0 173 94 271t240 98q49 0 86 -13q38 -12 42 -12q19 0 19 19l47 3q6 -90 20 -195l-51 -6q-15 75 -54.5 111t-125.5 36q-95 0 -161 -77.5t-66 -207.5q0 -140 65.5 -215t167.5 -75 q125 0 208 113l42 -36q-97 -138 -250 -149q-4 -9 -10 -26.5t-6 -18.5q42 -4 64.5 -24.5t22.5 -55.5q0 -44 -32 -73t-71 -39t-81 -10z" />
<glyph unicode="&#xc8;" horiz-adv-x="612" d="M554 -1q-121 2 -394 2q-9 0 -123 -3v51q12 -1 34 -1q35 0 42 15q7 14 7 60q1 79 1 230q0 42 -0.5 118t-0.5 83q0 48 -6 59q-7 13 -43 13q-20 0 -32 -1v52q4 0 58.5 -2t79.5 -2q230 0 339 3q4 -85 14 -159l-46 -3q-13 73 -39 89q-14 10 -40.5 13t-104.5 3q-47 0 -68 -2 q-20 -1 -22 -18q-5 -31 -5 -180q0 -25 8 -30q11 -6 71 -6t82.5 4.5t33.5 15.5q14 15 17 61h44q-3 -75 -3 -113q0 -59 2 -107h-45q-4 52 -23 66q-22 17 -109 17q-64 0 -71 -7q-7 -6 -7 -31q0 -179 14 -209q7 -14 27.5 -20t74.5 -6q125 0 159 23q32 23 49 106l49 -4 q-15 -91 -24 -180zM142 841l63 54q40 -47 151 -160l-21 -22q-116 72 -193 128z" />
<glyph unicode="&#xc9;" horiz-adv-x="612" d="M554 -1q-121 2 -394 2q-9 0 -123 -3v51q12 -1 34 -1q35 0 42 15q7 14 7 60q1 79 1 230q0 42 -0.5 118t-0.5 83q0 48 -6 59q-7 13 -43 13q-20 0 -32 -1v52q4 0 58.5 -2t79.5 -2q230 0 339 3q4 -85 14 -159l-46 -3q-13 73 -39 89q-14 10 -40.5 13t-104.5 3q-47 0 -68 -2 q-20 -1 -22 -18q-5 -31 -5 -180q0 -25 8 -30q11 -6 71 -6t82.5 4.5t33.5 15.5q14 15 17 61h44q-3 -75 -3 -113q0 -59 2 -107h-45q-4 52 -23 66q-22 17 -109 17q-64 0 -71 -7q-7 -6 -7 -31q0 -179 14 -209q7 -14 27.5 -20t74.5 -6q125 0 159 23q32 23 49 106l49 -4 q-15 -91 -24 -180zM391 895l63 -54q-77 -56 -193 -128l-21 22q111 113 151 160z" />
<glyph unicode="&#xca;" horiz-adv-x="612" d="M554 -1q-121 2 -394 2q-9 0 -123 -3v51q12 -1 34 -1q35 0 42 15q7 14 7 60q1 79 1 230q0 42 -0.5 118t-0.5 83q0 48 -6 59q-7 13 -43 13q-20 0 -32 -1v52q4 0 58.5 -2t79.5 -2q230 0 339 3q4 -85 14 -159l-46 -3q-13 73 -39 89q-14 10 -40.5 13t-104.5 3q-47 0 -68 -2 q-20 -1 -22 -18q-5 -31 -5 -180q0 -25 8 -30q11 -6 71 -6t82.5 4.5t33.5 15.5q14 15 17 61h44q-3 -75 -3 -113q0 -59 2 -107h-45q-4 52 -23 66q-22 17 -109 17q-64 0 -71 -7q-7 -6 -7 -31q0 -179 14 -209q7 -14 27.5 -20t74.5 -6q125 0 159 23q32 23 49 106l49 -4 q-15 -91 -24 -180zM451 730l-24 -24q-8 6 -56 40t-69 49q-79 -55 -124 -89l-23 24q42 42 122 128h58q69 -79 116 -128z" />
<glyph unicode="&#xcb;" horiz-adv-x="612" d="M554 -1q-121 2 -394 2q-9 0 -123 -3v51q12 -1 34 -1q35 0 42 15q7 14 7 60q1 79 1 230q0 42 -0.5 118t-0.5 83q0 48 -6 59q-7 13 -43 13q-20 0 -32 -1v52q4 0 58.5 -2t79.5 -2q230 0 339 3q4 -85 14 -159l-46 -3q-13 73 -39 89q-14 10 -40.5 13t-104.5 3q-47 0 -68 -2 q-20 -1 -22 -18q-5 -31 -5 -180q0 -25 8 -30q11 -6 71 -6t82.5 4.5t33.5 15.5q14 15 17 61h44q-3 -75 -3 -113q0 -59 2 -107h-45q-4 52 -23 66q-22 17 -109 17q-64 0 -71 -7q-7 -6 -7 -31q0 -179 14 -209q7 -14 27.5 -20t74.5 -6q125 0 159 23q32 23 49 106l49 -4 q-15 -91 -24 -180zM205 737q-19 0 -32.5 13t-13.5 34q0 20 13.5 33.5t34.5 13.5q20 0 33 -13.5t13 -33.5t-13.5 -33.5t-34.5 -13.5zM390 737q-20 0 -33.5 13t-13.5 34q0 20 13.5 33.5t34.5 13.5q20 0 33 -13.5t13 -33.5t-13.5 -33.5t-33.5 -13.5z" />
<glyph unicode="&#xcc;" horiz-adv-x="328" d="M291 -2q-108 4 -129 4q-24 0 -70 -2t-55 -2v51q7 0 18.5 -0.5t15.5 -0.5q37 0 43 13q5 11 5 61q0 42 0.5 129t0.5 101q0 176 -1 202q-2 53 -5 60q-6 13 -43 13q-20 0 -32 -1v51q10 0 54.5 -2t68.5 -2q16 0 128 4v-51q-15 1 -37 1q-28 0 -37 -12q-8 -11 -9 -62 q-2 -76 -2 -192q0 -167 2 -239q1 -52 9 -62q8 -12 37 -12q3 0 16.5 0.5t21.5 0.5v-51zM36 841l63 54q40 -47 151 -160l-21 -22q-116 72 -193 128z" />
<glyph unicode="&#xcd;" horiz-adv-x="328" d="M291 -2q-108 4 -129 4q-24 0 -70 -2t-55 -2v51q7 0 18.5 -0.5t15.5 -0.5q37 0 43 13q5 11 5 61q0 42 0.5 129t0.5 101q0 176 -1 202q-2 53 -5 60q-6 13 -43 13q-20 0 -32 -1v51q10 0 54.5 -2t68.5 -2q16 0 128 4v-51q-15 1 -37 1q-28 0 -37 -12q-8 -11 -9 -62 q-2 -76 -2 -192q0 -167 2 -239q1 -52 9 -62q8 -12 37 -12q3 0 16.5 0.5t21.5 0.5v-51zM240 895l63 -54q-77 -56 -193 -128l-21 22q111 113 151 160z" />
<glyph unicode="&#xce;" horiz-adv-x="328" d="M291 -2q-108 4 -129 4q-24 0 -70 -2t-55 -2v51q7 0 18.5 -0.5t15.5 -0.5q37 0 43 13q5 11 5 61q0 42 0.5 129t0.5 101q0 176 -1 202q-2 53 -5 60q-6 13 -43 13q-20 0 -32 -1v51q10 0 54.5 -2t68.5 -2q16 0 128 4v-51q-15 1 -37 1q-28 0 -37 -12q-8 -11 -9 -62 q-2 -76 -2 -192q0 -167 2 -239q1 -52 9 -62q8 -12 37 -12q3 0 16.5 0.5t21.5 0.5v-51zM313 730l-24 -24q-8 6 -56 40t-69 49q-79 -55 -124 -89l-23 24q42 42 122 128h58q69 -79 116 -128z" />
<glyph unicode="&#xcf;" horiz-adv-x="328" d="M291 -2q-108 4 -129 4q-24 0 -70 -2t-55 -2v51q7 0 18.5 -0.5t15.5 -0.5q37 0 43 13q5 11 5 61q0 42 0.5 129t0.5 101q0 176 -1 202q-2 53 -5 60q-6 13 -43 13q-20 0 -32 -1v51q10 0 54.5 -2t68.5 -2q16 0 128 4v-51q-15 1 -37 1q-28 0 -37 -12q-8 -11 -9 -62 q-2 -76 -2 -192q0 -167 2 -239q1 -52 9 -62q8 -12 37 -12q3 0 16.5 0.5t21.5 0.5v-51zM69 737q-19 0 -32.5 13t-13.5 34q0 20 13.5 33.5t34.5 13.5q20 0 33 -13.5t13 -33.5t-13.5 -33.5t-34.5 -13.5zM254 737q-20 0 -33.5 13t-13.5 34q0 20 13.5 33.5t34.5 13.5 q20 0 33 -13.5t13 -33.5t-13.5 -33.5t-33.5 -13.5z" />
<glyph unicode="&#xd0;" horiz-adv-x="750" d="M30 385q40 -2 91 -2q0 149 -1 171q-2 52 -6 60q-7 12 -44 12q-20 0 -31 -1v52q8 0 57.5 -2t72.5 -2q16 0 72.5 1.5t77.5 1.5q362 0 362 -327q0 -155 -97 -252.5t-272 -97.5q-29 0 -80 1.5t-63 1.5q-25 0 -73.5 -2t-56.5 -2v51q12 -1 30 -1q38 0 44 13q7 14 7 61 q1 61 1 205q-16 0 -46 -0.5t-45 -0.5v59zM207 561q-2 -44 -2 -178h17q118 0 181 2v-59q-49 1 -179 1h-19q0 -133 3 -197q3 -40 15 -55q17 -20 105 -20q127 0 191 76t64 220q0 269 -278 269q-72 0 -84 -11q-13 -9 -14 -48z" />
<glyph unicode="&#xd1;" horiz-adv-x="767" d="M278 -2q-112 4 -127 4q-24 0 -69.5 -2t-48.5 -2v51q6 0 17 -0.5t15 -0.5q35 0 43 14q9 14 9 63q2 145 2 427q0 37 -9 50q-5 8 -20.5 15.5t-37.5 8.5q-12 0 -23 -1v52q76 -4 107 -4q48 0 76 3q12 -24 51 -80q167 -230 328 -433q-4 352 -6 388q-3 43 -12 60q-9 15 -43 15 q-26 0 -38 -1v51q1 0 53 -2t77 -2q9 0 117 4v-51q-14 1 -31 1q-28 0 -39 -11t-13 -50q-4 -152 -4 -325q0 -162 3 -244l-49 -10q-286 392 -426 567q0 -256 7 -445q1 -35 12 -47q10 -13 42 -13q3 0 16 0.5t21 0.5v-51zM379 821l33 -13q24 -10 44 -10q17 0 27 10.5t19 36.5 l35 -9q-14 -53 -34.5 -76.5t-50.5 -23.5q-29 0 -65 14l-30 11q-35 14 -48 14q-15 0 -24.5 -10.5t-20.5 -36.5l-34 12q34 97 90 97q20 0 59 -16z" />
<glyph unicode="&#xd2;" horiz-adv-x="749" d="M702 356q0 -169 -93 -270.5t-249 -101.5q-141 0 -227.5 95.5t-86.5 246.5q0 165 94.5 265t253.5 100q134 0 221 -93.5t87 -241.5zM609 319q0 56 -12.5 108.5t-39.5 100t-76 76t-115 28.5q-102 0 -166 -76t-64 -198q0 -146 68.5 -230t182.5 -84q100 0 161 73.5t61 201.5z M236 841l63 54q40 -47 151 -160l-21 -22q-116 72 -193 128z" />
<glyph unicode="&#xd3;" horiz-adv-x="749" d="M702 356q0 -169 -93 -270.5t-249 -101.5q-141 0 -227.5 95.5t-86.5 246.5q0 165 94.5 265t253.5 100q134 0 221 -93.5t87 -241.5zM609 319q0 56 -12.5 108.5t-39.5 100t-76 76t-115 28.5q-102 0 -166 -76t-64 -198q0 -146 68.5 -230t182.5 -84q100 0 161 73.5t61 201.5z M442 895l63 -54q-77 -56 -193 -128l-21 22q111 113 151 160z" />
<glyph unicode="&#xd4;" horiz-adv-x="749" d="M702 356q0 -169 -93 -270.5t-249 -101.5q-141 0 -227.5 95.5t-86.5 246.5q0 165 94.5 265t253.5 100q134 0 221 -93.5t87 -241.5zM609 319q0 56 -12.5 108.5t-39.5 100t-76 76t-115 28.5q-102 0 -166 -76t-64 -198q0 -146 68.5 -230t182.5 -84q100 0 161 73.5t61 201.5z M520 730l-24 -24q-8 6 -56 40t-69 49q-79 -55 -124 -89l-23 24q42 42 122 128h58q69 -79 116 -128z" />
<glyph unicode="&#xd5;" horiz-adv-x="749" d="M702 356q0 -169 -93 -270.5t-249 -101.5q-141 0 -227.5 95.5t-86.5 246.5q0 165 94.5 265t253.5 100q134 0 221 -93.5t87 -241.5zM609 319q0 56 -12.5 108.5t-39.5 100t-76 76t-115 28.5q-102 0 -166 -76t-64 -198q0 -146 68.5 -230t182.5 -84q100 0 161 73.5t61 201.5z M367 821l33 -13q24 -10 44 -10q17 0 27 10.5t19 36.5l35 -9q-14 -53 -34.5 -76.5t-50.5 -23.5q-29 0 -65 14l-30 11q-35 14 -48 14q-15 0 -24.5 -10.5t-20.5 -36.5l-34 12q34 97 90 97q20 0 59 -16z" />
<glyph unicode="&#xd6;" horiz-adv-x="749" d="M702 356q0 -169 -93 -270.5t-249 -101.5q-141 0 -227.5 95.5t-86.5 246.5q0 165 94.5 265t253.5 100q134 0 221 -93.5t87 -241.5zM609 319q0 56 -12.5 108.5t-39.5 100t-76 76t-115 28.5q-102 0 -166 -76t-64 -198q0 -146 68.5 -230t182.5 -84q100 0 161 73.5t61 201.5z M275 737q-19 0 -32.5 13t-13.5 34q0 20 13.5 33.5t34.5 13.5q20 0 33 -13.5t13 -33.5t-13.5 -33.5t-34.5 -13.5zM460 737q-20 0 -33.5 13t-13.5 34q0 20 13.5 33.5t34.5 13.5q20 0 33 -13.5t13 -33.5t-13.5 -33.5t-33.5 -13.5z" />
<glyph unicode="&#xd7;" horiz-adv-x="605" d="M484 160l-42 -44l-140 138l-138 -138l-41 41l138 139l-140 137l43 44l139 -137l138 138l41 -42l-138 -138z" />
<glyph unicode="&#xd8;" horiz-adv-x="749" d="M702 356q0 -169 -93 -270.5t-249 -101.5q-104 0 -181 54l-57 -77l-41 32l58 79q-93 96 -93 254q0 165 94.5 265t253.5 100q93 0 167 -49l57 77l42 -33l-57 -77q99 -94 99 -253zM609 319q0 131 -59 218l-322 -434q65 -59 159 -59q100 0 161 73.5t61 201.5zM136 358 q0 -132 56 -214l322 435q-60 53 -148 53q-102 0 -166 -76t-64 -198z" />
<glyph unicode="&#xd9;" horiz-adv-x="759" d="M738 625q-11 1 -28 1q-32 0 -43 -11q-13 -13 -13 -64q-1 -90 -1 -285q0 -283 -269 -283q-274 0 -274 249q0 73 1 184t1 138q0 48 -9 61q-7 11 -43 11q-19 0 -29 -1v52q70 -4 123 -4q67 0 135 4v-52q-11 1 -30 1q-37 0 -48 -12q-12 -13 -13 -63q-2 -95 -2 -284 q0 -112 44.5 -165t150.5 -53q105 0 151 57.5t46 169.5q0 244 -2 278q-2 47 -13 61q-10 11 -44 11q-23 0 -33 -1v52q70 -4 130 -4q44 0 112 4v-52zM228 841l63 54q40 -47 151 -160l-21 -22q-116 72 -193 128z" />
<glyph unicode="&#xda;" horiz-adv-x="759" d="M738 625q-11 1 -28 1q-32 0 -43 -11q-13 -13 -13 -64q-1 -90 -1 -285q0 -283 -269 -283q-274 0 -274 249q0 73 1 184t1 138q0 48 -9 61q-7 11 -43 11q-19 0 -29 -1v52q70 -4 123 -4q67 0 135 4v-52q-11 1 -30 1q-37 0 -48 -12q-12 -13 -13 -63q-2 -95 -2 -284 q0 -112 44.5 -165t150.5 -53q105 0 151 57.5t46 169.5q0 244 -2 278q-2 47 -13 61q-10 11 -44 11q-23 0 -33 -1v52q70 -4 130 -4q44 0 112 4v-52zM455 895l63 -54q-77 -56 -193 -128l-21 22q111 113 151 160z" />
<glyph unicode="&#xdb;" horiz-adv-x="759" d="M738 625q-11 1 -28 1q-32 0 -43 -11q-13 -13 -13 -64q-1 -90 -1 -285q0 -283 -269 -283q-274 0 -274 249q0 73 1 184t1 138q0 48 -9 61q-7 11 -43 11q-19 0 -29 -1v52q70 -4 123 -4q67 0 135 4v-52q-11 1 -30 1q-37 0 -48 -12q-12 -13 -13 -63q-2 -95 -2 -284 q0 -112 44.5 -165t150.5 -53q105 0 151 57.5t46 169.5q0 244 -2 278q-2 47 -13 61q-10 11 -44 11q-23 0 -33 -1v52q70 -4 130 -4q44 0 112 4v-52zM537 730l-24 -24q-8 6 -56 40t-69 49q-79 -55 -124 -89l-23 24q42 42 122 128h58q69 -79 116 -128z" />
<glyph unicode="&#xdc;" horiz-adv-x="759" d="M738 625q-11 1 -28 1q-32 0 -43 -11q-13 -13 -13 -64q-1 -90 -1 -285q0 -283 -269 -283q-274 0 -274 249q0 73 1 184t1 138q0 48 -9 61q-7 11 -43 11q-19 0 -29 -1v52q70 -4 123 -4q67 0 135 4v-52q-11 1 -30 1q-37 0 -48 -12q-12 -13 -13 -63q-2 -95 -2 -284 q0 -112 44.5 -165t150.5 -53q105 0 151 57.5t46 169.5q0 244 -2 278q-2 47 -13 61q-10 11 -44 11q-23 0 -33 -1v52q70 -4 130 -4q44 0 112 4v-52zM278 737q-19 0 -32.5 13t-13.5 34q0 20 13.5 33.5t34.5 13.5q20 0 33 -13.5t13 -33.5t-13.5 -33.5t-34.5 -13.5zM463 737 q-20 0 -33.5 13t-13.5 34q0 20 13.5 33.5t34.5 13.5q20 0 33 -13.5t13 -33.5t-13.5 -33.5t-33.5 -13.5z" />
<glyph unicode="&#xdd;" horiz-adv-x="634" d="M442 49v-51q-7 0 -55 2t-72 2q-21 0 -129 -4v51q20 -1 38 -1q32 0 38 13q8 13 8 59q0 13 0.5 65.5t0.5 99.5q-12 21 -184 293q-29 48 -68 48q-13 0 -19 -1v51q38 -3 127 -3q104 0 141 3v-51l-13 1h-21q-25 0 -36 -4.5t-11 -18.5q0 -20 25 -62q9 -15 49.5 -79t65.5 -106 q104 163 120 190q20 34 20 54q0 13 -10 19t-39 7h-20l-12 -1v51q38 -3 132 -3q79 0 116 3v-51q-5 1 -15 1q-23 0 -38 -11.5t-34 -36.5q-43 -57 -192 -291q0 -5 2 -167q0 -46 6 -57q8 -15 46 -15q20 0 33 1zM408 895l63 -54q-77 -56 -193 -128l-21 22q111 113 151 160z" />
<glyph unicode="&#xde;" horiz-adv-x="582" d="M293 -2q-112 4 -131 4q-24 0 -70 -2t-55 -2v51q7 0 18.5 -0.5t15.5 -0.5q37 0 43 13q5 11 5 61q0 42 0.5 129t0.5 101q0 176 -1 202q-2 53 -5 60q-6 13 -43 13q-20 0 -32 -1v51q10 0 54.5 -2t68.5 -2q19 0 127 4v-51q-15 1 -36 1q-28 0 -37 -12q-9 -11 -10 -75q87 3 93 3 q240 0 240 -175q0 -214 -278 -214q-34 0 -55 4q0 -9 0.5 -25.5t0.5 -20.5q2 -41 10 -52q8 -12 39 -12q3 0 16 0.5t21 0.5v-51zM205 246q0 -31 17 -35q16 -4 50 -4q92 0 132.5 36.5t40.5 117.5q0 128 -167 128q-54 0 -64 -12q-8 -8 -8 -58q0 -5 -0.5 -61t-0.5 -112z" />
<glyph unicode="&#xdf;" horiz-adv-x="575" d="M199 -1q-30 2 -59 2q-24 0 -60.5 -1.5t-42.5 -1.5v50q12 -1 27 -1q34 0 44 10q8 7 8 61q0 12 0.5 92.5t0.5 123.5q0 59 -1 85q-31 0 -69 -2v52q27 0 47 4q11 2 16.5 11.5t11.5 41.5q10 64 35 108q30 54 81 83.5t112 29.5q73 0 110.5 -39.5t37.5 -93.5q0 -89 -71 -157 q-42 -40 -53.5 -55t-11.5 -28q0 -14 17 -30.5t86 -67.5q42 -32 63 -63t21 -72q0 -72 -52.5 -113.5t-127.5 -41.5q-60 0 -91 22t-31 52q0 20 12 32.5t31 12.5q28 0 36 -28q5 -24 17.5 -32.5t34.5 -8.5q41 0 66.5 21.5t25.5 57.5q0 30 -17 54.5t-59 56.5q-72 55 -92 76t-20 48 q0 20 12 38.5t41 47.5q83 85 83 160q0 40 -23 67t-64 27q-61 0 -101 -60q-19 -28 -27 -100t-8 -242q0 -229 4 -289z" />
<glyph unicode="&#xe0;" horiz-adv-x="509" d="M326 59q-72 -71 -155 -71q-59 0 -99.5 38.5t-40.5 97.5q0 78 88 109q36 12 170 36q28 5 36 13.5t8 34.5q0 64 -22.5 91t-75.5 27q-42 0 -62 -18q-15 -15 -16 -45q-3 -32 -44 -32t-41 43q0 45 51.5 75.5t139.5 30.5q70 0 108 -29.5t38 -103.5q0 -18 -3 -99.5t-3 -124.5 q0 -52 10.5 -68t32.5 -16q16 0 39 9l12 -47q-44 -20 -87 -20q-38 0 -58 14t-26 55zM330 195q0 24 -20 24q-22 0 -66.5 -9t-71.5 -18q-59 -19 -59 -66q0 -33 24 -53.5t58 -20.5q25 0 53.5 10.5t45.5 25.5q21 17 28.5 40.5t7.5 66.5zM131 695l75 38q35 -72 104 -186l-26 -15 q-102 104 -153 163z" />
<glyph unicode="&#xe1;" horiz-adv-x="509" d="M326 59q-72 -71 -155 -71q-59 0 -99.5 38.5t-40.5 97.5q0 78 88 109q36 12 170 36q28 5 36 13.5t8 34.5q0 64 -22.5 91t-75.5 27q-42 0 -62 -18q-15 -15 -16 -45q-3 -32 -44 -32t-41 43q0 45 51.5 75.5t139.5 30.5q70 0 108 -29.5t38 -103.5q0 -18 -3 -99.5t-3 -124.5 q0 -52 10.5 -68t32.5 -16q16 0 39 9l12 -47q-44 -20 -87 -20q-38 0 -58 14t-26 55zM330 195q0 24 -20 24q-22 0 -66.5 -9t-71.5 -18q-59 -19 -59 -66q0 -33 24 -53.5t58 -20.5q25 0 53.5 10.5t45.5 25.5q21 17 28.5 40.5t7.5 66.5zM294 730l78 -35q-62 -69 -156 -163l-26 15 q76 125 104 183z" />
<glyph unicode="&#xe2;" horiz-adv-x="509" d="M326 59q-72 -71 -155 -71q-59 0 -99.5 38.5t-40.5 97.5q0 78 88 109q36 12 170 36q28 5 36 13.5t8 34.5q0 64 -22.5 91t-75.5 27q-42 0 -62 -18q-15 -15 -16 -45q-3 -32 -44 -32t-41 43q0 45 51.5 75.5t139.5 30.5q70 0 108 -29.5t38 -103.5q0 -18 -3 -99.5t-3 -124.5 q0 -52 10.5 -68t32.5 -16q16 0 39 9l12 -47q-44 -20 -87 -20q-38 0 -58 14t-26 55zM330 195q0 24 -20 24q-22 0 -66.5 -9t-71.5 -18q-59 -19 -59 -66q0 -33 24 -53.5t58 -20.5q25 0 53.5 10.5t45.5 25.5q21 17 28.5 40.5t7.5 66.5zM379 545l-28 -19q-45 49 -106 110 q-35 -33 -107 -112l-28 20q61 80 115 162h47q58 -89 107 -161z" />
<glyph unicode="&#xe3;" horiz-adv-x="509" d="M326 59q-72 -71 -155 -71q-59 0 -99.5 38.5t-40.5 97.5q0 78 88 109q36 12 170 36q28 5 36 13.5t8 34.5q0 64 -22.5 91t-75.5 27q-42 0 -62 -18q-15 -15 -16 -45q-3 -32 -44 -32t-41 43q0 45 51.5 75.5t139.5 30.5q70 0 108 -29.5t38 -103.5q0 -18 -3 -99.5t-3 -124.5 q0 -52 10.5 -68t32.5 -16q16 0 39 9l12 -47q-44 -20 -87 -20q-38 0 -58 14t-26 55zM330 195q0 24 -20 24q-22 0 -66.5 -9t-71.5 -18q-59 -19 -59 -66q0 -33 24 -53.5t58 -20.5q25 0 53.5 10.5t45.5 25.5q21 17 28.5 40.5t7.5 66.5zM238 645l30 -13q21 -10 42 -10 q16 0 25 10.5t18 36.5l35 -9q-14 -54 -33 -77.5t-48 -23.5q-27 0 -62 14l-29 12q-29 13 -43 13q-15 0 -24.5 -10.5t-19.5 -36.5l-33 11q33 98 86 98q21 0 56 -15z" />
<glyph unicode="&#xe4;" horiz-adv-x="509" d="M326 59q-72 -71 -155 -71q-59 0 -99.5 38.5t-40.5 97.5q0 78 88 109q36 12 170 36q28 5 36 13.5t8 34.5q0 64 -22.5 91t-75.5 27q-42 0 -62 -18q-15 -15 -16 -45q-3 -32 -44 -32t-41 43q0 45 51.5 75.5t139.5 30.5q70 0 108 -29.5t38 -103.5q0 -18 -3 -99.5t-3 -124.5 q0 -52 10.5 -68t32.5 -16q16 0 39 9l12 -47q-44 -20 -87 -20q-38 0 -58 14t-26 55zM330 195q0 24 -20 24q-22 0 -66.5 -9t-71.5 -18q-59 -19 -59 -66q0 -33 24 -53.5t58 -20.5q25 0 53.5 10.5t45.5 25.5q21 17 28.5 40.5t7.5 66.5zM164 572q-19 0 -32 12.5t-13 33.5 q0 20 13 33t33 13t32.5 -13t12.5 -33t-13 -33t-33 -13zM331 572q-20 0 -32.5 12.5t-12.5 33.5q0 20 12.5 33t33.5 13q19 0 31.5 -13t12.5 -33t-13 -33t-32 -13z" />
<glyph unicode="&#xe5;" horiz-adv-x="509" d="M326 59q-72 -71 -155 -71q-59 0 -99.5 38.5t-40.5 97.5q0 78 88 109q36 12 170 36q28 5 36 13.5t8 34.5q0 64 -22.5 91t-75.5 27q-42 0 -62 -18q-15 -15 -16 -45q-3 -32 -44 -32t-41 43q0 45 51.5 75.5t139.5 30.5q70 0 108 -29.5t38 -103.5q0 -18 -3 -99.5t-3 -124.5 q0 -52 10.5 -68t32.5 -16q16 0 39 9l12 -47q-44 -20 -87 -20q-38 0 -58 14t-26 55zM330 195q0 24 -20 24q-22 0 -66.5 -9t-71.5 -18q-59 -19 -59 -66q0 -33 24 -53.5t58 -20.5q25 0 53.5 10.5t45.5 25.5q21 17 28.5 40.5t7.5 66.5zM243 719q42 0 68.5 -25.5t26.5 -65.5 q0 -41 -27.5 -68t-68.5 -27t-68.5 25.5t-27.5 66.5q0 40 28 67t69 27zM242 685q-23 0 -38.5 -16t-15.5 -42q0 -25 15 -42t39 -17q23 0 38.5 16.5t15.5 42.5q0 27 -15.5 42.5t-38.5 15.5z" />
<glyph unicode="&#xe6;" horiz-adv-x="767" d="M357 79q-78 -91 -186 -91q-58 0 -99 37.5t-41 93.5q0 84 86 113q20 7 48 13t71.5 13.5t61.5 11.5q19 4 27 12.5t8 29.5q0 74 -24 99.5t-77 25.5q-36 0 -56 -18q-16 -15 -18 -41q-3 -37 -43 -37q-43 0 -43 43q0 45 50.5 75t140.5 30q55 0 85.5 -19t44.5 -58q60 78 167 78 q85 0 128.5 -48.5t43.5 -130.5q0 -25 -8 -34t-29 -11q-28 -2 -78 -3t-114.5 -1.5t-95.5 -1.5q-2 -8 -2 -27q0 -83 41.5 -131.5t115.5 -48.5q81 0 144 81l40 -29q-81 -120 -211 -120q-126 0 -178 94zM330 196q0 24 -22 24q-21 0 -69.5 -10t-74.5 -19q-52 -20 -52 -67 q0 -31 24 -52t59 -21q27 0 56.5 11.5t48.5 30.5q30 30 30 103zM417 322q0 -11 15 -12q18 -1 86 -1q101 1 118 12q10 8 10 32q0 42 -27 62.5t-68 20.5q-45 0 -81.5 -25t-49.5 -69q-3 -9 -3 -20z" />
<glyph unicode="&#xe7;" horiz-adv-x="460" d="M161 -253v42q112 0 112 61q0 20 -17.5 32t-49.5 12l-8 16q26 60 32 75q-88 4 -138.5 67.5t-50.5 163.5q0 122 69 198t180 76q62 0 98.5 -25.5t36.5 -62.5q0 -52 -46 -52q-37 0 -43 33q-5 31 -19.5 41.5t-47.5 10.5q-60 0 -103.5 -51.5t-43.5 -137.5q0 -93 40 -144 t107 -51q39 0 76.5 21.5t63.5 60.5l40 -30q-67 -104 -179 -116q-4 -9 -10 -26.5t-6 -18.5q84 -10 84 -77q0 -42 -31 -70t-68.5 -38t-77.5 -10z" />
<glyph unicode="&#xe8;" horiz-adv-x="480" d="M460 105q-80 -120 -209 -120q-99 0 -154.5 64.5t-55.5 171.5q0 120 65 194.5t171 74.5q80 0 124.5 -48t44.5 -131q0 -25 -8.5 -34.5t-29.5 -11.5q-77 -4 -287 -4q-2 -12 -2 -32q0 -78 41 -127t116 -49q84 0 144 82zM131 323q0 -13 12 -13q18 -1 70 -1q115 0 134 10 q13 7 13 29q0 45 -27.5 66.5t-71.5 21.5q-38 0 -72 -21.5t-52 -65.5q-6 -16 -6 -26zM149 695l75 38q35 -72 104 -186l-26 -15q-102 104 -153 163z" />
<glyph unicode="&#xe9;" horiz-adv-x="480" d="M460 105q-80 -120 -209 -120q-99 0 -154.5 64.5t-55.5 171.5q0 120 65 194.5t171 74.5q80 0 124.5 -48t44.5 -131q0 -25 -8.5 -34.5t-29.5 -11.5q-77 -4 -287 -4q-2 -12 -2 -32q0 -78 41 -127t116 -49q84 0 144 82zM131 323q0 -13 12 -13q18 -1 70 -1q115 0 134 10 q13 7 13 29q0 45 -27.5 66.5t-71.5 21.5q-38 0 -72 -21.5t-52 -65.5q-6 -16 -6 -26zM304 730l78 -35q-62 -69 -156 -163l-26 15q76 125 104 183z" />
<glyph unicode="&#xea;" horiz-adv-x="480" d="M460 105q-80 -120 -209 -120q-99 0 -154.5 64.5t-55.5 171.5q0 120 65 194.5t171 74.5q80 0 124.5 -48t44.5 -131q0 -25 -8.5 -34.5t-29.5 -11.5q-77 -4 -287 -4q-2 -12 -2 -32q0 -78 41 -127t116 -49q84 0 144 82zM131 323q0 -13 12 -13q18 -1 70 -1q115 0 134 10 q13 7 13 29q0 45 -27.5 66.5t-71.5 21.5q-38 0 -72 -21.5t-52 -65.5q-6 -16 -6 -26zM385 545l-28 -19q-45 49 -106 110q-35 -33 -107 -112l-28 20q61 80 115 162h47q58 -89 107 -161z" />
<glyph unicode="&#xeb;" horiz-adv-x="480" d="M460 105q-80 -120 -209 -120q-99 0 -154.5 64.5t-55.5 171.5q0 120 65 194.5t171 74.5q80 0 124.5 -48t44.5 -131q0 -25 -8.5 -34.5t-29.5 -11.5q-77 -4 -287 -4q-2 -12 -2 -32q0 -78 41 -127t116 -49q84 0 144 82zM131 323q0 -13 12 -13q18 -1 70 -1q115 0 134 10 q13 7 13 29q0 45 -27.5 66.5t-71.5 21.5q-38 0 -72 -21.5t-52 -65.5q-6 -16 -6 -26zM177 572q-19 0 -32 12.5t-13 33.5q0 20 13 33t33 13t32.5 -13t12.5 -33t-13 -33t-33 -13zM344 572q-20 0 -32.5 12.5t-12.5 33.5q0 20 12.5 33t33.5 13q19 0 31.5 -13t12.5 -33t-13 -33 t-32 -13z" />
<glyph unicode="&#xec;" horiz-adv-x="305" d="M29 695l75 38q35 -72 104 -186l-26 -15q-102 104 -153 163zM275 -2q-100 4 -116 4q-25 0 -71.5 -2t-48.5 -2v50q13 -1 27 -1q39 0 46 13q4 7 6 65q1 43 1 123q0 110 -6 150q-5 24 -49 24q-15 0 -27 -1v50q89 0 157 18l10 -12q-9 -86 -9 -220q0 -91 1 -132q2 -56 7 -66 q7 -12 41 -12q15 0 31 1v-50z" />
<glyph unicode="&#xed;" horiz-adv-x="305" d="M186 730l78 -35q-62 -69 -156 -163l-26 15q76 125 104 183zM275 -2q-100 4 -116 4q-25 0 -71.5 -2t-48.5 -2v50q13 -1 27 -1q39 0 46 13q4 7 6 65q1 43 1 123q0 110 -6 150q-5 24 -49 24q-15 0 -27 -1v50q89 0 157 18l10 -12q-9 -86 -9 -220q0 -91 1 -132q2 -56 7 -66 q7 -12 41 -12q15 0 31 1v-50z" />
<glyph unicode="&#xee;" horiz-adv-x="305" d="M275 -2q-100 4 -116 4q-25 0 -71.5 -2t-48.5 -2v50q13 -1 27 -1q39 0 46 13q4 7 6 65q1 43 1 123q0 110 -6 150q-5 24 -49 24q-15 0 -27 -1v50q89 0 157 18l10 -12q-9 -86 -9 -220q0 -91 1 -132q2 -56 7 -66q7 -12 41 -12q15 0 31 1v-50zM276 545l-28 -19 q-45 49 -106 110q-35 -33 -107 -112l-28 20q61 80 115 162h47q58 -89 107 -161z" />
<glyph unicode="&#xef;" horiz-adv-x="305" d="M55 572q-19 0 -32 12.5t-13 33.5q0 20 13 33t33 13t32.5 -13t12.5 -33t-13 -33t-33 -13zM222 572q-20 0 -32.5 12.5t-12.5 33.5q0 20 12.5 33t33.5 13q19 0 31.5 -13t12.5 -33t-13 -33t-32 -13zM275 -2q-100 4 -116 4q-25 0 -71.5 -2t-48.5 -2v50q13 -1 27 -1q39 0 46 13 q4 7 6 65q1 43 1 123q0 110 -6 150q-5 24 -49 24q-15 0 -27 -1v50q89 0 157 18l10 -12q-9 -86 -9 -220q0 -91 1 -132q2 -56 7 -66q7 -12 41 -12q15 0 31 1v-50z" />
<glyph unicode="&#xf0;" d="M411 685l25 -48q-46 -21 -75 -35q143 -123 143 -347q0 -120 -63 -195t-180 -75q-100 0 -160 67.5t-60 170.5q0 116 67 187t178 71q64 0 100 -36q-27 68 -92 124q-96 -46 -126 -62l-24 48q24 9 105 48q-55 35 -118 56l18 45q97 -22 167 -68q68 33 95 49zM423 223 q0 39 -7.5 73.5t-23.5 65.5t-46.5 49t-72.5 18q-68 0 -108.5 -48.5t-40.5 -125.5q0 -103 42 -158t112 -55q63 0 104 47.5t41 133.5z" />
<glyph unicode="&#xf1;" horiz-adv-x="613" d="M271 -2q-9 0 -30.5 1.5t-42.5 2t-41 0.5q-24 0 -66.5 -2t-53.5 -2v50q13 -1 26 -1q37 0 46 15q7 12 7 59q1 48 1 129q0 123 -6 148q-5 24 -50 24q-15 0 -24 -1v50q93 0 153 17l10 -12q-5 -54 -6 -77q97 90 191 90q86 0 110 -86q13 -49 13 -155v-127q0 -53 6 -62 q8 -12 41 -12q15 0 31 1v-50q-116 4 -118 4q-24 0 -63.5 -2t-52.5 -2v50q12 -1 26 -1q32 0 42 16q13 22 13 111q0 170 -26 213q-19 31 -70 31q-31 0 -66.5 -17.5t-56.5 -46.5t-21 -100q0 -92 1 -133q1 -52 8 -62q6 -12 39 -12q15 0 30 1v-50zM301 645l30 -13q21 -10 42 -10 q16 0 25 10.5t18 36.5l35 -9q-14 -54 -33 -77.5t-48 -23.5q-27 0 -62 14l-29 12q-29 13 -43 13q-15 0 -24.5 -10.5t-19.5 -36.5l-33 11q33 98 86 98q21 0 56 -15z" />
<glyph unicode="&#xf2;" d="M504 255q0 -120 -66.5 -195t-178.5 -75q-98 0 -158 68t-60 170q0 117 69 192t180 75q96 0 155 -65.5t59 -169.5zM423 223q0 54 -12 98t-47.5 77.5t-90.5 33.5q-68 0 -108.5 -50t-40.5 -127q0 -103 42 -158t112 -55q63 0 104 47.5t41 133.5zM146 695l75 38 q35 -72 104 -186l-26 -15q-102 104 -153 163z" />
<glyph unicode="&#xf3;" d="M504 255q0 -120 -66.5 -195t-178.5 -75q-98 0 -158 68t-60 170q0 117 69 192t180 75q96 0 155 -65.5t59 -169.5zM423 223q0 54 -12 98t-47.5 77.5t-90.5 33.5q-68 0 -108.5 -50t-40.5 -127q0 -103 42 -158t112 -55q63 0 104 47.5t41 133.5zM312 730l78 -35 q-62 -69 -156 -163l-26 15q76 125 104 183z" />
<glyph unicode="&#xf4;" d="M504 255q0 -120 -66.5 -195t-178.5 -75q-98 0 -158 68t-60 170q0 117 69 192t180 75q96 0 155 -65.5t59 -169.5zM423 223q0 54 -12 98t-47.5 77.5t-90.5 33.5q-68 0 -108.5 -50t-40.5 -127q0 -103 42 -158t112 -55q63 0 104 47.5t41 133.5zM406 545l-28 -19 q-45 49 -106 110q-35 -33 -107 -112l-28 20q61 80 115 162h47q58 -89 107 -161z" />
<glyph unicode="&#xf5;" d="M504 255q0 -120 -66.5 -195t-178.5 -75q-98 0 -158 68t-60 170q0 117 69 192t180 75q96 0 155 -65.5t59 -169.5zM423 223q0 54 -12 98t-47.5 77.5t-90.5 33.5q-68 0 -108.5 -50t-40.5 -127q0 -103 42 -158t112 -55q63 0 104 47.5t41 133.5zM268 645l30 -13q21 -10 42 -10 q16 0 25 10.5t18 36.5l35 -9q-14 -54 -33 -77.5t-48 -23.5q-27 0 -62 14l-29 12q-29 13 -43 13q-15 0 -24.5 -10.5t-19.5 -36.5l-33 11q33 98 86 98q21 0 56 -15z" />
<glyph unicode="&#xf6;" d="M504 255q0 -120 -66.5 -195t-178.5 -75q-98 0 -158 68t-60 170q0 117 69 192t180 75q96 0 155 -65.5t59 -169.5zM423 223q0 54 -12 98t-47.5 77.5t-90.5 33.5q-68 0 -108.5 -50t-40.5 -127q0 -103 42 -158t112 -55q63 0 104 47.5t41 133.5zM188 572q-19 0 -32 12.5 t-13 33.5q0 20 13 33t33 13t32.5 -13t12.5 -33t-13 -33t-33 -13zM355 572q-20 0 -32.5 12.5t-12.5 33.5q0 20 12.5 33t33.5 13q19 0 31.5 -13t12.5 -33t-13 -33t-32 -13z" />
<glyph unicode="&#xf7;" horiz-adv-x="605" d="M347 441q0 -19 -13 -32.5t-33 -13.5t-33 13.5t-13 33.5t13.5 33.5t32.5 13.5q20 0 33 -13.5t13 -34.5zM527 264h-449v61h449v-61zM347 146q0 -19 -13 -32.5t-33 -13.5t-33 13.5t-13 33.5t13.5 33.5t32.5 13.5q20 0 33 -13.5t13 -34.5z" />
<glyph unicode="&#xf8;" d="M504 255q0 -120 -66.5 -195t-178.5 -75q-67 0 -117 33l-44 -59l-37 29l44 60q-64 67 -64 175q0 117 69 192t180 75q67 0 117 -33l46 62l39 -30l-48 -64q60 -65 60 -170zM124 255q0 -86 30 -141l210 285q-36 33 -91 33q-68 0 -108.5 -50t-40.5 -127zM423 223q0 80 -28 135 l-210 -282q37 -34 93 -34q63 0 104 47.5t41 133.5z" />
<glyph unicode="&#xf9;" horiz-adv-x="612" d="M580 3q-77 0 -151 -14l-9 8l4 72q-82 -83 -175 -83q-70 0 -108.5 36.5t-38.5 133.5q0 16 2 90t2 104q0 45 -8 57q-11 15 -39 15q-16 0 -31 -1v50q100 0 157 17l10 -11q-14 -105 -14 -267q0 -89 17 -118q22 -37 82 -37q36 0 72.5 18t54.5 50q18 33 18 103q0 93 -1 124 q-1 45 -8 57q-10 15 -40 15q-17 0 -30 -1v50q100 0 157 17l9 -11q-12 -90 -12 -261q0 -115 7 -142q6 -23 34 -23q15 0 39 2v-50zM169 695l75 38q35 -72 104 -186l-26 -15q-102 104 -153 163z" />
<glyph unicode="&#xfa;" horiz-adv-x="612" d="M580 3q-77 0 -151 -14l-9 8l4 72q-82 -83 -175 -83q-70 0 -108.5 36.5t-38.5 133.5q0 16 2 90t2 104q0 45 -8 57q-11 15 -39 15q-16 0 -31 -1v50q100 0 157 17l10 -11q-14 -105 -14 -267q0 -89 17 -118q22 -37 82 -37q36 0 72.5 18t54.5 50q18 33 18 103q0 93 -1 124 q-1 45 -8 57q-10 15 -40 15q-17 0 -30 -1v50q100 0 157 17l9 -11q-12 -90 -12 -261q0 -115 7 -142q6 -23 34 -23q15 0 39 2v-50zM347 730l78 -35q-62 -69 -156 -163l-26 15q76 125 104 183z" />
<glyph unicode="&#xfb;" horiz-adv-x="612" d="M580 3q-77 0 -151 -14l-9 8l4 72q-82 -83 -175 -83q-70 0 -108.5 36.5t-38.5 133.5q0 16 2 90t2 104q0 45 -8 57q-11 15 -39 15q-16 0 -31 -1v50q100 0 157 17l10 -11q-14 -105 -14 -267q0 -89 17 -118q22 -37 82 -37q36 0 72.5 18t54.5 50q18 33 18 103q0 93 -1 124 q-1 45 -8 57q-10 15 -40 15q-17 0 -30 -1v50q100 0 157 17l9 -11q-12 -90 -12 -261q0 -115 7 -142q6 -23 34 -23q15 0 39 2v-50zM422 545l-28 -19q-45 49 -106 110q-35 -33 -107 -112l-28 20q61 80 115 162h47q58 -89 107 -161z" />
<glyph unicode="&#xfc;" horiz-adv-x="612" d="M580 3q-77 0 -151 -14l-9 8l4 72q-82 -83 -175 -83q-70 0 -108.5 36.5t-38.5 133.5q0 16 2 90t2 104q0 45 -8 57q-11 15 -39 15q-16 0 -31 -1v50q100 0 157 17l10 -11q-14 -105 -14 -267q0 -89 17 -118q22 -37 82 -37q36 0 72.5 18t54.5 50q18 33 18 103q0 93 -1 124 q-1 45 -8 57q-10 15 -40 15q-17 0 -30 -1v50q100 0 157 17l9 -11q-12 -90 -12 -261q0 -115 7 -142q6 -23 34 -23q15 0 39 2v-50zM217 572q-19 0 -32 12.5t-13 33.5q0 20 13 33t33 13t32.5 -13t12.5 -33t-13 -33t-33 -13zM384 572q-20 0 -32.5 12.5t-12.5 33.5q0 20 12.5 33 t33.5 13q19 0 31.5 -13t12.5 -33t-13 -33t-32 -13z" />
<glyph unicode="&#xfd;" horiz-adv-x="523" d="M238 2q-22 55 -161 367q-12 27 -22.5 40t-17 15t-18.5 2t-19 -1v50q44 -3 115 -3q80 0 117 3v-50q-11 1 -33 1q-40 0 -40 -27q0 -22 37 -105q14 -32 86 -197q55 137 76 195q32 88 32 108q0 26 -43 26q-16 0 -30 -1v50q60 -4 107 -4q56 0 99 4v-50q-8 1 -19 1 q-19 0 -32 -18t-42 -87q-111 -272 -185 -438q-29 -65 -64.5 -100.5t-87.5 -35.5q-30 0 -45 13.5t-15 33.5q0 46 43 46q6 0 18.5 -4.5t22.5 -4.5q31 0 57 41q26 42 64 130zM321 730l78 -35q-62 -69 -156 -163l-26 15q76 125 104 183z" />
<glyph unicode="&#xfe;" horiz-adv-x="581" d="M263 -242q-120 4 -125 4q-24 0 -69.5 -2t-52.5 -2v50q12 -1 26 -1q38 0 45 16q6 13 8 57q1 55 1 291q0 384 -1 442q-1 43 -13 53.5t-45 10.5q-15 0 -24 -1v51q100 0 158 17l10 -13q-6 -55 -7 -330q37 39 89 64.5t99 25.5q79 0 124.5 -60t45.5 -168q0 -124 -63.5 -198.5 t-167.5 -74.5q-71 0 -129 33q0 -80 1 -142q1 -45 11 -60q9 -14 47 -14q16 0 32 1v-50zM170 211q0 -51 11 -95q9 -33 43 -52.5t77 -19.5q66 0 107 49.5t41 135.5q0 192 -131 192q-41 0 -80.5 -25.5t-52.5 -58.5q-15 -41 -15 -126z" />
<glyph unicode="&#xff;" horiz-adv-x="523" d="M238 2q-22 55 -161 367q-12 27 -22.5 40t-17 15t-18.5 2t-19 -1v50q44 -3 115 -3q80 0 117 3v-50q-11 1 -33 1q-40 0 -40 -27q0 -22 37 -105q14 -32 86 -197q55 137 76 195q32 88 32 108q0 26 -43 26q-16 0 -30 -1v50q60 -4 107 -4q56 0 99 4v-50q-8 1 -19 1 q-19 0 -32 -18t-42 -87q-111 -272 -185 -438q-29 -65 -64.5 -100.5t-87.5 -35.5q-30 0 -45 13.5t-15 33.5q0 46 43 46q6 0 18.5 -4.5t22.5 -4.5q31 0 57 41q26 42 64 130zM185 572q-19 0 -32 12.5t-13 33.5q0 20 13 33t33 13t32.5 -13t12.5 -33t-13 -33t-33 -13zM352 572 q-20 0 -32.5 12.5t-12.5 33.5q0 20 12.5 33t33.5 13q19 0 31.5 -13t12.5 -33t-13 -33t-32 -13z" />
<glyph unicode="&#x152;" horiz-adv-x="992" d="M934 -1q-121 2 -383 2q-18 0 -80.5 -2.5t-104.5 -2.5q-156 0 -238 87t-82 240q0 98 39.5 177.5t118.5 128t184 48.5q18 0 72 -2t107 -2q220 0 330 3q4 -79 13 -159l-45 -3q-13 73 -39 89q-15 10 -41.5 13t-104.5 3q-46 0 -68 -2q-18 -1 -22 -18q-5 -25 -5 -180 q0 -25 9 -30q10 -6 71 -6q60 0 82.5 4.5t32.5 15.5q13 13 18 61h44q-3 -75 -3 -113q0 -59 2 -107h-45q-4 50 -23 66q-22 17 -110 17q-63 0 -70 -7q-8 -6 -8 -31q0 -181 15 -209q7 -14 27 -20t75 -6q123 0 159 23q32 23 49 106l49 -4q-14 -85 -25 -180zM500 135q2 68 2 216 q0 121 -1 179q-1 56 -13 71q-21 24 -97 24q-121 0 -187 -80.5t-66 -207.5q0 -129 59.5 -207.5t182.5 -78.5q92 0 108 29q11 18 12 55z" />
<glyph unicode="&#x153;" horiz-adv-x="861" d="M840 105q-78 -120 -208 -120q-128 0 -179 103q-61 -103 -194 -103q-98 0 -158 68t-60 170q0 117 68.5 192t180.5 75q121 0 177 -105q62 105 191 105q80 0 124.5 -48t44.5 -131q0 -25 -8.5 -34.5t-29.5 -11.5q-77 -4 -287 -4q-2 -12 -2 -32q0 -77 40.5 -126.5t115.5 -49.5 q85 0 145 82zM422 222q0 40 -7 75t-23 67t-46.5 50.5t-72.5 18.5q-68 0 -108.5 -50t-40.5 -128q0 -103 41.5 -158t110.5 -55q63 0 104.5 46.5t41.5 133.5zM511 323q0 -13 13 -13q18 -1 70 -1q114 0 134 10q13 7 13 29q0 45 -27.5 67t-71.5 22q-40 0 -75 -21.5t-50 -66.5 q-6 -16 -6 -26z" />
<glyph unicode="&#x178;" horiz-adv-x="634" d="M442 49v-51q-7 0 -55 2t-72 2q-21 0 -129 -4v51q20 -1 38 -1q32 0 38 13q8 13 8 59q0 13 0.5 65.5t0.5 99.5q-12 21 -184 293q-29 48 -68 48q-13 0 -19 -1v51q38 -3 127 -3q104 0 141 3v-51l-13 1h-21q-25 0 -36 -4.5t-11 -18.5q0 -20 25 -62q9 -15 49.5 -79t65.5 -106 q104 163 120 190q20 34 20 54q0 13 -10 19t-39 7h-20l-12 -1v51q38 -3 132 -3q79 0 116 3v-51q-5 1 -15 1q-23 0 -38 -11.5t-34 -36.5q-43 -57 -192 -291q0 -5 2 -167q0 -46 6 -57q8 -15 46 -15q20 0 33 1zM233 737q-19 0 -32.5 13t-13.5 34q0 20 13.5 33.5t34.5 13.5 q20 0 33 -13.5t13 -33.5t-13.5 -33.5t-34.5 -13.5zM418 737q-20 0 -33.5 13t-13.5 34q0 20 13.5 33.5t34.5 13.5q20 0 33 -13.5t13 -33.5t-13.5 -33.5t-33.5 -13.5z" />
<glyph unicode="&#x2c6;" horiz-adv-x="277" d="M273 545l-28 -19q-45 49 -106 110q-35 -33 -107 -112l-28 20q61 80 115 162h47q58 -89 107 -161z" />
<glyph unicode="&#x2dc;" horiz-adv-x="277" d="M135 645l30 -13q21 -10 42 -10q16 0 25 10.5t18 36.5l35 -9q-14 -54 -33 -77.5t-48 -23.5q-27 0 -62 14l-29 12q-29 13 -43 13q-15 0 -24.5 -10.5t-19.5 -36.5l-33 11q33 98 86 98q21 0 56 -15z" />
<glyph unicode="&#x2000;" horiz-adv-x="448" />
<glyph unicode="&#x2001;" horiz-adv-x="896" />
<glyph unicode="&#x2002;" horiz-adv-x="448" />
<glyph unicode="&#x2003;" horiz-adv-x="896" />
<glyph unicode="&#x2004;" horiz-adv-x="298" />
<glyph unicode="&#x2005;" horiz-adv-x="224" />
<glyph unicode="&#x2006;" horiz-adv-x="149" />
<glyph unicode="&#x2007;" horiz-adv-x="149" />
<glyph unicode="&#x2008;" horiz-adv-x="112" />
<glyph unicode="&#x2009;" horiz-adv-x="179" />
<glyph unicode="&#x200a;" horiz-adv-x="49" />
<glyph unicode="&#x2010;" horiz-adv-x="322" d="M48 292q23 -2 114 -2q75 0 112 2v-73q-29 1 -111 1q-77 0 -115 -1v73z" />
<glyph unicode="&#x2011;" horiz-adv-x="322" d="M48 292q23 -2 114 -2q75 0 112 2v-73q-29 1 -111 1q-77 0 -115 -1v73z" />
<glyph unicode="&#x2012;" horiz-adv-x="322" d="M48 292q23 -2 114 -2q75 0 112 2v-73q-29 1 -111 1q-77 0 -115 -1v73z" />
<glyph unicode="&#x2013;" horiz-adv-x="585" d="M48 288q23 -2 246 -2q206 0 243 2v-66q-29 1 -242 1q-209 0 -247 -1v66z" />
<glyph unicode="&#x2014;" horiz-adv-x="808" d="M48 288q23 -2 343 -2q331 0 368 2v-66q-29 1 -367 1q-306 0 -344 -1v66z" />
<glyph unicode="&#x2018;" horiz-adv-x="205" d="M168 695l14 -35q-27 -11 -46 -25q-26 -19 -26 -49q0 -22 21 -31q34 -16 34 -53q0 -20 -16 -35.5t-42 -15.5q-25 0 -45 19.5t-20 64.5q0 56 34.5 97t91.5 63z" />
<glyph unicode="&#x2019;" horiz-adv-x="205" d="M37 449l-14 34q26 10 46 25q27 20 27 50q0 21 -22 31q-33 15 -33 53q0 20 15.5 35t41.5 15q25 0 45.5 -19.5t20.5 -63.5q0 -57 -35.5 -98t-91.5 -62z" />
<glyph unicode="&#x201a;" horiz-adv-x="205" d="M37 -119l-14 34q26 10 46 25q27 20 27 49q0 21 -22 32q-33 15 -33 53q0 20 15.5 35t41.5 15q25 0 45.5 -19.5t20.5 -64.5q0 -57 -35.5 -98t-91.5 -61z" />
<glyph unicode="&#x201c;" horiz-adv-x="368" d="M331 695l14 -35q-27 -11 -46 -25q-26 -19 -26 -49q0 -22 21 -31q34 -15 34 -53q0 -20 -16 -35.5t-42 -15.5q-25 0 -45 19.5t-20 64.5q0 56 34.5 97t91.5 63zM168 695l14 -35q-27 -11 -46 -25q-26 -19 -26 -49q0 -22 21 -31q34 -16 34 -53q0 -20 -16 -35.5t-42 -15.5 q-25 0 -45 19.5t-20 64.5q0 57 35 98t91 62z" />
<glyph unicode="&#x201d;" horiz-adv-x="368" d="M37 449l-14 34q26 10 46 25q27 20 27 50q0 21 -22 31q-33 15 -33 53q0 20 15.5 35t41.5 15q25 0 45.5 -19.5t20.5 -63.5q0 -58 -34.5 -98.5t-92.5 -61.5zM200 449l-14 34q24 9 45 25q28 21 28 50q0 21 -22 31q-33 14 -33 53q0 20 15.5 35t41.5 15q25 0 45.5 -19.5 t20.5 -63.5q0 -58 -34.5 -98.5t-92.5 -61.5z" />
<glyph unicode="&#x201e;" horiz-adv-x="368" d="M37 -119l-14 34q26 10 46 25q27 20 27 49q0 21 -22 32q-33 15 -33 53q0 20 15.5 35t41.5 15q25 0 45.5 -19.5t20.5 -64.5q0 -59 -35.5 -98.5t-91.5 -60.5zM200 -119l-14 34q23 9 46 25q27 20 27 49q0 22 -22 32q-33 15 -33 53q0 20 15.5 35t41.5 15q25 0 45.5 -19.5 t20.5 -64.5q0 -58 -35 -98t-92 -61z" />
<glyph unicode="&#x2022;" horiz-adv-x="322" d="M160 162q-53 0 -87 33t-34 94q0 55 36 89t88 34q53 0 86.5 -34t33.5 -91q0 -58 -34 -91.5t-89 -33.5z" />
<glyph unicode="&#x2026;" horiz-adv-x="815" d="M185 42q0 -24 -14 -38t-36 -14t-36 14.5t-14 38.5q0 22 14.5 36.5t35.5 14.5q22 0 36 -14t14 -38zM457 42q0 -24 -14 -38t-36 -14t-36 14.5t-14 38.5q0 22 14.5 36.5t35.5 14.5q22 0 36 -14t14 -38zM730 42q0 -24 -13.5 -38t-36.5 -14q-21 0 -35.5 14.5t-14.5 38.5 q0 22 15 36.5t36 14.5q22 0 35.5 -14t13.5 -38z" />
<glyph unicode="&#x202f;" horiz-adv-x="179" />
<glyph unicode="&#x2039;" horiz-adv-x="270" d="M246 82l-27 -23q-96 94 -193 177v21q122 100 194 169l24 -22q-47 -60 -133 -156q101 -121 135 -166z" />
<glyph unicode="&#x203a;" horiz-adv-x="270" d="M27 403l26 23q102 -99 193 -176v-21q-104 -85 -194 -170l-24 22q40 50 133 156q-117 143 -134 166z" />
<glyph unicode="&#x205f;" horiz-adv-x="224" />
<glyph unicode="&#x20ac;" horiz-adv-x="653" d="M448 233h-217q30 -180 178 -180q55 0 102 30t75 84l46 -29q-86 -153 -243 -153q-104 0 -167 67.5t-77 180.5h-76v50h72v15q0 32 3 60h-75v49h83q24 111 96.5 175t181.5 64q80 0 126.5 -31t46.5 -77q0 -50 -47 -50q-42 0 -50 35q-9 41 -31.5 54.5t-68.5 13.5 q-62 0 -109.5 -50t-63.5 -134h215v-49h-222q-1 -11 -1 -34q0 -28 1 -41h222v-50z" />
<glyph unicode="&#x2122;" horiz-adv-x="889" d="M280 321q-36 2 -89 2q-60 0 -82 -2v34h23q20 0 26 8q5 7 5 30q1 40 1 111q0 91 -1 112q0 13 -4 18q-5 5 -33 5q-34 0 -44 -10.5t-21 -53.5l-32 2q8 50 10 99q32 -2 150 -2q127 0 164 2q1 -40 7 -98l-34 -2q-7 42 -17 52.5t-41 10.5q-36 0 -40 -5q-4 -6 -4 -18 q-1 -25 -1 -112q0 -7 0.5 -47t0.5 -64q0 -22 6 -29q8 -9 31 -9h19v-34zM534 321q-28 2 -69 2q-38 0 -78 -2v34h19q22 0 26 9q6 11 7 32q12 186 12 210q0 14 -3 21q-6 14 -31 14h-16v34q30 -2 70 -2q38 0 62 2q9 -31 16 -50q5 -13 29.5 -73.5t39.5 -99.5q10 24 27 62.5 t28.5 65.5t16.5 41q1 4 10 26t10 28q11 -1 58 -1q11 0 34 0.5t29 0.5v-34q-6 1 -18 1q-19 0 -23 -9q-4 -8 -4 -34q0 -17 7 -205q2 -26 7 -33q4 -6 23 -6h19v-34q-30 2 -86 2q-32 0 -70 -2v34h19q18 0 22 8q5 6 5 32q0 61 -5 206q-28 -63 -111 -250h-23q-9 23 -102 252 q-7 -176 -8 -217q0 -18 7 -25q6 -6 20 -6h24v-34z" />
</font>
</defs>
</svg>
