<?xml version="1.0" standalone="no"?>
<!DOCTYPE svg PUBLIC "-//W3C//DTD SVG 1.1//EN" "http://www.w3.org/Graphics/SVG/1.1/DTD/svg11.dtd" >
<svg xmlns="http://www.w3.org/2000/svg">
<metadata></metadata>
<defs>
<font id="cassiaitalic" horiz-adv-x="545" >
<font-face units-per-em="1000" ascent="745" descent="-255" />
<missing-glyph horiz-adv-x="219" />
<glyph unicode="&#xfb01;" horiz-adv-x="589" d="M227 415q-65 -350 -112 -494q-27 -82 -77.5 -126t-112.5 -44q-39 0 -59 15.5t-20 39.5q0 19 12 31.5t31 12.5q21 0 38 -23q11 -17 27 -17q23 0 41 20.5t36 73.5q36 104 112 511q-48 0 -71 -1l12 46q38 1 55.5 13t33.5 58q41 119 103.5 164.5t152.5 45.5q61 0 93 -26 t32 -57q0 -27 -15.5 -41t-36.5 -14q-43 0 -54 46q-10 38 -54 38q-45 0 -74 -26q-26 -24 -45.5 -65.5t-38.5 -132.5q70 -2 136 -2q74 0 151 18l8 -11q-4 -14 -21 -78.5t-33 -125.5q-6 -25 -15 -58t-12.5 -46.5t-7.5 -30.5t-5 -26.5t-1 -18.5q0 -22 21 -22q32 0 81 36l23 -37 q-96 -74 -161 -74q-54 0 -54 53q0 31 44 195q31 120 31 146q0 18 -11 25t-46 8q-32 1 -137 1z" />
<glyph unicode="&#xfb02;" horiz-adv-x="583" d="M227 415q-65 -350 -112 -494q-27 -82 -77.5 -126t-112.5 -44q-39 0 -59 15.5t-20 39.5q0 19 12 31.5t31 12.5q21 0 38 -23q11 -17 27 -17q23 0 41 20.5t36 73.5q36 104 112 511q-48 0 -71 -1l12 46q39 1 56.5 13.5t32.5 57.5q38 117 102 163.5t158 46.5q37 0 74 -15 q12 2 74 17l8 -11q-46 -171 -107 -427q-44 -179 -44 -219q0 -24 19 -24q36 0 84 36l24 -38q-42 -34 -86.5 -53.5t-75.5 -19.5q-55 0 -55 57q0 42 43 214q60 232 80 330q6 32 6 49q0 50 -67 50q-53 0 -84 -26q-29 -23 -50 -63.5t-40 -134.5q72 0 106 3l-13 -52q-35 1 -102 1z " />
<glyph unicode="&#xfb03;" horiz-adv-x="877" d="M227 415q-65 -350 -112 -494q-27 -82 -77.5 -126t-112.5 -44q-39 0 -59 15.5t-20 39.5q0 19 12 31.5t31 12.5q21 0 38 -23q11 -17 27 -17q23 0 41 20.5t36 73.5q36 104 112 511q-48 0 -71 -1l12 46q38 1 55.5 13t33.5 58q18 50 41.5 86.5t46.5 57t50.5 33t49.5 16t48 3.5 q39 0 65.5 -18.5t26.5 -43.5q0 -22 -13 -35t-31 -13q-35 0 -44 33q-7 23 -34 23q-43 0 -70 -29q-46 -48 -73 -181q51 -1 110 -1q56 0 77.5 11.5t37.5 57.5q41 120 103.5 165t152.5 45q61 0 93 -26t32 -57q0 -27 -15.5 -41t-36.5 -14q-42 0 -54 46q-10 38 -54 38 q-45 0 -74 -26q-26 -24 -45.5 -65.5t-38.5 -132.5q35 -1 136 -1q78 0 151 17l8 -11q-6 -22 -55 -204q-40 -156 -40 -180q0 -22 22 -22q31 0 80 36l24 -37q-98 -74 -162 -74q-54 0 -54 53q0 31 44 195q31 120 31 146q0 18 -11 25t-46 8q-32 1 -137 1q-38 -203 -58 -295.5 t-48 -178.5q-27 -83 -80.5 -125.5t-126.5 -42.5q-36 0 -55 15t-19 37q0 18 12 30t29 12q20 0 37 -20q12 -16 32 -16q56 0 88 93q19 56 36.5 139.5t68.5 351.5h-204z" />
<glyph unicode="&#xfb04;" horiz-adv-x="872" d="M227 415q-65 -350 -112 -494q-27 -82 -77.5 -126t-112.5 -44q-39 0 -59 15.5t-20 39.5q0 19 12 31.5t31 12.5q21 0 38 -23q11 -17 27 -17q23 0 41 20.5t36 73.5q36 104 112 511q-48 0 -71 -1l12 46q38 1 55.5 13t33.5 58q18 50 41.5 86.5t46.5 57t50.5 33t49.5 16t48 3.5 q39 0 65.5 -18.5t26.5 -43.5q0 -22 -13 -35t-31 -13q-35 0 -44 33q-7 23 -34 23q-43 0 -70 -29q-46 -48 -73 -181q51 -1 115 -1q55 0 75 11.5t35 57.5q39 117 102.5 163.5t158.5 46.5q36 0 73 -15q2 0 74 17l8 -11q-46 -171 -107 -427q-43 -175 -43 -219q0 -24 18 -24 q36 0 84 36l24 -38q-42 -34 -86 -53.5t-76 -19.5q-55 0 -55 57q0 46 43 214q60 232 80 330q6 24 6 49q0 50 -67 50q-53 0 -84 -26q-29 -23 -50 -63.5t-40 -134.5q72 0 106 3l-13 -52q-34 1 -102 1q-38 -203 -58 -295.5t-48 -178.5q-27 -83 -80.5 -125.5t-126.5 -42.5 q-36 0 -55 15t-19 37q0 18 12 30t29 12q20 0 37 -20q12 -16 32 -16q56 0 88 93q19 56 36.5 139.5t68.5 351.5h-204z" />
<glyph horiz-adv-x="0" />
<glyph horiz-adv-x="333" />
<glyph unicode=" "  horiz-adv-x="219" />
<glyph unicode="&#x09;" horiz-adv-x="219" />
<glyph unicode="&#xa0;" horiz-adv-x="219" />
<glyph unicode="!" horiz-adv-x="319" d="M195 204h-51q18 88 42 246.5t27 171.5q7 34 22 50t46 16q51 0 51 -43q0 -20 -6 -38q-8 -29 -57.5 -177t-73.5 -226zM136 -7q-24 0 -38.5 14t-14.5 38q0 29 18 49.5t47 20.5q23 0 38.5 -14t15.5 -38q0 -28 -16.5 -49t-49.5 -21z" />
<glyph unicode="&#x22;" horiz-adv-x="306" d="M139 443h-37q7 45 15.5 131.5t9.5 89.5q8 44 52 44q37 0 37 -33q0 -16 -7 -37q-2 -5 -30 -80t-40 -115zM282 443h-37q7 45 15.5 131.5t9.5 89.5q7 44 52 44q37 0 37 -33q0 -13 -8 -37q-3 -8 -17.5 -47t-28.5 -78.5t-23 -69.5z" />
<glyph unicode="#" horiz-adv-x="625" d="M164 -10h-52l71 230h-136l13 76h146l35 105h-137l12 76h148l67 213h52l-67 -213h135l68 213h52l-68 -213h129l-12 -76h-139l-35 -105h132l-12 -76h-143l-72 -230h-52l72 230h-136zM258 296h136l35 105h-136z" />
<glyph unicode="$" horiz-adv-x="507" d="M401 724l-20 -85q65 -4 104 -30.5t39 -59.5q0 -52 -50 -52q-39 0 -47 45q-7 35 -58 43l-52 -226l45 -32q95 -68 95 -145q-1 -86 -60.5 -135.5t-164.5 -55.5l-20 -88h-46l20 88q-79 4 -125.5 37.5t-46.5 79.5q0 31 16 46t37 15q45 0 50 -54q5 -63 81 -69l58 248l-38 27 q-87 60 -87 144q0 71 49 119.5t155 54.5l20 85h46zM371 150q0 34 -13.5 58t-62.5 57l-50 -219q64 6 95 36t31 68zM211 492q0 -34 14 -55t52 -49l46 198q-50 -3 -81 -27t-31 -67z" />
<glyph unicode="%" horiz-adv-x="815" d="M578 629h52l-360 -629h-54zM388 499q0 -46 -14 -99t-41 -93q-55 -82 -149 -82q-64 0 -98 38.5t-34 103.5q0 51 19 106t49 94q53 70 143 70q125 0 125 -138zM324 508q0 86 -71 86q-50 0 -85 -53q-20 -31 -36 -83.5t-16 -95.5q0 -45 20 -69.5t58 -24.5q56 0 88 63 q18 36 30 89.5t12 87.5zM792 264q0 -110 -56 -192q-55 -82 -149 -82q-64 0 -98 38.5t-34 103.5q0 51 19 106t49 94q54 69 142 69q63 0 95 -35.5t32 -101.5zM727 273q0 86 -71 86q-49 0 -85 -53q-20 -30 -35.5 -83t-15.5 -97q0 -93 78 -93q56 0 87 63q18 35 30 88.5t12 88.5z " />
<glyph unicode="&#x26;" horiz-adv-x="751" d="M716 88q-38 -50 -73 -75t-76 -25q-34 0 -60.5 14.5t-58.5 50.5q-87 -68 -204 -68q-93 0 -154.5 57t-61.5 144q0 85 53.5 140t146.5 80q-28 60 -28 103q0 78 54.5 127t147.5 49q63 0 97.5 -24.5t34.5 -59.5q0 -21 -14 -33t-34 -12q-37 0 -44 33q-8 44 -61 44 q-46 0 -71 -28.5t-25 -75.5q0 -52 33 -120q60 -126 161 -255q32 36 61 84.5t29 73.5q0 18 -12.5 24t-42.5 6q-18 0 -27 -1l10 50q38 -2 125 -2q66 0 120 2l-10 -50q-6 1 -23 1q-28 0 -46 -22q-6 -7 -51 -83q-49 -78 -98 -125q37 -50 80 -50q36 0 81 57zM414 96 q-92 121 -155 240q-9 17 -22 17q-11 0 -35 -13q-87 -48 -87 -131q0 -66 44.5 -112.5t120.5 -46.5q77 0 134 46z" />
<glyph unicode="'" horiz-adv-x="163" d="M139 443h-37q7 45 15.5 131.5t9.5 89.5q8 44 52 44q37 0 37 -33q0 -16 -7 -37q-2 -5 -30 -80t-40 -115z" />
<glyph unicode="(" horiz-adv-x="296" d="M199 -158l-34 -24q-128 162 -128 366q0 169 87.5 313t246.5 247l28 -31q-277 -248 -277 -544q0 -179 77 -327z" />
<glyph unicode=")" horiz-adv-x="296" d="M118 720l34 24q128 -162 128 -366q0 -169 -88 -313t-246 -247l-28 31q277 246 277 544q0 179 -77 327z" />
<glyph unicode="*" horiz-adv-x="348" d="M274 521q34 -28 46 -34q21 -12 29 -17t13 -11t5 -14q0 -14 -13 -26.5t-28 -12.5q-11 0 -18.5 9.5t-21.5 36.5q-17 33 -32 50q-5 -32 -5 -49q0 -41 -4 -58q-5 -18 -25 -18q-14 0 -28.5 6.5t-14.5 19.5q0 8 3 15.5t13 23.5t16 27q10 17 19 41q-17 -6 -54 -27 q-41 -22 -50 -22q-13 0 -20 12.5t-7 26.5q0 32 32 32q5 0 18 -0.5t22 -0.5q26 0 54 4q-15 14 -79 54q-17 11 -17 24q0 15 14 27.5t26 12.5q19 0 31 -26q27 -53 43 -73q6 28 6 52q3 54 3 55q5 19 26 19q43 0 43 -27q0 -14 -26 -57q-20 -34 -25 -49q32 10 69 34q23 13 35 13 q13 0 20.5 -11.5t7.5 -27.5q0 -26 -22 -29q-12 -2 -49 -2q-35 0 -55 -3z" />
<glyph unicode="+" horiz-adv-x="588" d="M284 61h-61l47 201h-203l13 60h203l47 203h60l-46 -203h203l-14 -60h-202z" />
<glyph unicode="," horiz-adv-x="230" d="M-32 -132l-8 41q46 8 70.5 29.5t24.5 42.5q0 16 -19 29q-25 17 -25 46q0 23 16.5 40.5t45.5 17.5q24 0 43 -17t19 -54q0 -56 -41 -106.5t-126 -68.5z" />
<glyph unicode="-" horiz-adv-x="322" d="M66 291q22 -2 113 -2q75 0 113 2l-17 -72q-29 1 -111 1q-76 0 -114 -1z" />
<glyph unicode="." horiz-adv-x="223" d="M73 -9q-24 0 -39 14t-15 40q0 30 18.5 49t45.5 19q24 0 38.5 -15t14.5 -40q0 -30 -18 -48.5t-45 -18.5z" />
<glyph unicode="/" horiz-adv-x="381" d="M463 738l-452 -853h-65l452 853h65z" />
<glyph unicode="0" d="M538 426q0 -86 -27 -177t-76 -158q-76 -105 -200 -105q-96 0 -145 59t-49 163q0 78 24 162t69 149q85 122 217 122q89 0 138 -56t49 -159zM449 435q0 151 -110 151q-81 0 -139 -98q-32 -55 -52.5 -134t-20.5 -154q0 -158 119 -158q83 0 137 103q29 57 47.5 141.5 t18.5 148.5z" />
<glyph unicode="1" d="M370 -2q-116 4 -148 4q-29 0 -81.5 -2t-55.5 -2l12 51q10 -1 31 -1q41 0 57 16q12 12 23 58q49 193 84 359q6 26 6 45q0 23 -30 23q-24 0 -62 -10l-5 51q127 25 208 58l12 -11q-43 -130 -126 -515q-6 -29 -6 -47q0 -27 45 -27q31 0 48 1z" />
<glyph unicode="2" d="M425 -1q-61 2 -218 2q-136 0 -219 -2l13 63q235 163 318 248.5t83 172.5q0 48 -24 76t-71 28q-84 0 -101 -62q-5 -19 -8 -26.5t-9.5 -18t-16 -14t-24.5 -3.5q-39 0 -39 41q0 50 54 93.5t150 43.5q92 0 137.5 -42t45.5 -112q0 -27 -5.5 -51t-28.5 -64.5t-62.5 -81.5 t-115 -98.5t-178.5 -119.5q52 -2 87 -2q98 0 132.5 3.5t50.5 14.5q25 18 47 79l48 -4q-25 -83 -46 -164z" />
<glyph unicode="3" d="M332 336q67 -5 104.5 -42t37.5 -93q0 -102 -75 -158.5t-184 -56.5q-98 0 -142.5 36t-44.5 78q0 59 53 59q18 0 28.5 -10t11.5 -26q2 -43 23.5 -62.5t78.5 -19.5q72 0 115 39.5t43 108.5q0 52 -39 83.5t-103 31.5q-29 0 -43 -1l11 56q8 -1 30 -1q75 0 123.5 38t48.5 106 q0 36 -22 62t-66 26q-83 0 -93 -62q-7 -44 -51 -44q-17 0 -29 10t-12 29q0 44 51 81.5t141 37.5q85 0 126.5 -38t41.5 -94q0 -136 -164 -174z" />
<glyph unicode="4" d="M459 -3q-112 4 -144 4q-26 0 -140 -3l12 51q12 -1 31 -1q41 0 58 15q15 12 40 115q-189 0 -281 -2l8 37q282 302 396 426h68q-25 -92 -94 -393q63 0 104 1l-17 -70q-38 1 -101 1l-14 -60q-7 -28 -7 -46q0 -25 48 -25q28 0 44 1zM331 246l63 264q-130 -143 -243 -264h180z " />
<glyph unicode="5" d="M262 548l-52 -161q41 22 103 22q72 0 119.5 -44t47.5 -122q0 -67 -28 -123.5t-91.5 -94t-153.5 -37.5q-85 0 -129.5 33.5t-44.5 74.5q0 30 13.5 45t34.5 15q41 0 43 -36q3 -42 24 -59t74 -17q76 0 121 49t45 130q0 53 -29.5 87.5t-82.5 34.5q-76 0 -128 -39l-22 15 q28 84 95 298q42 -2 139 -2q86 0 165 3l-21 -74q-60 2 -242 2z" />
<glyph unicode="6" d="M176 329q65 78 176 78q70 0 114 -42.5t44 -118.5q0 -112 -67 -187t-182 -75q-89 0 -139.5 54t-50.5 155q0 59 14 121t43.5 121.5t70.5 106.5t100.5 76t127.5 29q62 0 96.5 -23t34.5 -56q0 -30 -16 -43t-39 -13q-18 0 -29 9.5t-13 25.5q-4 43 -54 43q-62 0 -127 -62.5 t-104 -198.5zM150 161q0 -51 30 -86t85 -35q65 0 111 51t46 145q0 50 -28.5 79t-81.5 29q-52 0 -98.5 -35.5t-58.5 -89.5q-5 -27 -5 -58z" />
<glyph unicode="7" d="M471 547h-140q-69 0 -94.5 -3.5t-38.5 -14.5q-22 -18 -44 -77l-49 7q29 84 46 160q128 -2 233 -2q93 0 177 3l10 -20q-239 -364 -358 -590q-18 -35 -46 -35q-36 0 -36 30q0 15 16 43q137 238 324 499z" />
<glyph unicode="8" d="M228 333q-76 53 -76 146q0 74 56.5 121t151.5 47q80 0 126 -39.5t46 -98.5q0 -120 -156 -171q104 -69 104 -159q0 -85 -63 -140.5t-172 -55.5q-94 0 -145 46.5t-51 114.5t42.5 114.5t136.5 74.5zM267 302q-69 -25 -105 -59t-36 -88q0 -49 32.5 -82t90.5 -33 q65 0 104 32.5t39 87.5q0 36 -29 68.5t-96 73.5zM332 366q60 23 92.5 54.5t32.5 82.5q0 40 -26.5 64.5t-70.5 24.5q-55 0 -88.5 -27t-33.5 -78q0 -69 94 -121z" />
<glyph unicode="9" d="M413 301q-64 -77 -173 -77q-69 0 -114.5 44.5t-45.5 120.5q0 112 66.5 185t182.5 73q187 0 187 -206q0 -61 -12 -122.5t-39 -122.5t-65.5 -107.5t-96.5 -75.5t-127 -29q-70 0 -108 25.5t-38 60.5q0 27 15 40t36 13q36 0 43 -36q10 -47 70 -47q62 0 122.5 62t96.5 199z M438 470q0 51 -29 85.5t-84 34.5q-65 0 -111.5 -49.5t-46.5 -142.5q0 -50 29.5 -80t82.5 -30q51 0 96.5 36t57.5 91q5 27 5 55z" />
<glyph unicode=":" horiz-adv-x="243" d="M93 -8q-24 0 -39 13.5t-15 39.5q0 31 18.5 49.5t45.5 18.5q24 0 38.5 -15t14.5 -40q0 -30 -17.5 -48t-45.5 -18zM168 320q-24 0 -39 13.5t-15 39.5q0 31 18.5 49.5t45.5 18.5q24 0 38.5 -15t14.5 -40q0 -30 -18 -48t-45 -18z" />
<glyph unicode=";" horiz-adv-x="243" d="M168 320q-24 0 -39 13.5t-15 39.5q0 31 18.5 49.5t45.5 18.5q24 0 38.5 -15t14.5 -40q0 -30 -18 -48t-45 -18zM-4 -132l-8 41q47 8 71.5 29.5t24.5 42.5q0 16 -19 29q-25 16 -25 46q0 23 16.5 40.5t45.5 17.5q24 0 43 -17t19 -54q0 -56 -41 -106.5t-127 -68.5z" />
<glyph unicode="&#x3c;" horiz-adv-x="605" d="M462 66l-346 190l15 65l434 192l-16 -71l-362 -156l291 -153z" />
<glyph unicode="=" horiz-adv-x="605" d="M517 181h-449l14 62h449zM555 345h-449l13 60h449z" />
<glyph unicode="&#x3e;" horiz-adv-x="605" d="M184 513l345 -190l-15 -64l-432 -193l17 72l360 155l-290 152z" />
<glyph unicode="?" horiz-adv-x="452" d="M251 203l-50 -8q-6 24 -6 53q0 57 30.5 92.5t95.5 73.5q48 28 73 57.5t25 74.5q0 39 -22 63t-61 24q-53 0 -76.5 -19.5t-29.5 -59.5q-5 -38 -49 -38q-41 0 -41 46q0 48 53.5 88t149.5 40q84 0 126.5 -38t42.5 -101t-40 -106.5t-118 -85.5q-56 -31 -80.5 -56.5 t-24.5 -67.5q0 -20 2 -32zM197 -7q-24 0 -38.5 14t-14.5 38q0 29 18 49.5t46 20.5q23 0 38.5 -13.5t15.5 -38.5q0 -28 -16 -49t-49 -21z" />
<glyph unicode="@" horiz-adv-x="831" d="M721 -41q-57 -41 -141 -65t-172 -24q-153 0 -247 90t-94 239q0 118 56 222.5t159 169.5t229 65q137 0 215 -68t78 -198q0 -123 -76.5 -224t-177.5 -101q-61 0 -61 62q0 29 20 95q-115 -158 -219 -158q-67 0 -67 78q0 127 118 252q76 81 167 81q50 0 82 -9l15 24l59 3 q-34 -85 -65 -182q-40 -125 -42 -162q0 -28 27 -28q43 0 81 48t57.5 108.5t19.5 108.5q0 111 -60.5 167t-172.5 56q-158 0 -266.5 -121t-108.5 -288q0 -127 80 -202.5t210 -75.5q142 0 272 80zM552 400q0 28 -59 28q-27 0 -58.5 -21.5t-58.5 -57.5q-75 -103 -75 -181 q0 -37 28 -37q69 0 173 149q24 34 41 83q9 27 9 37z" />
<glyph unicode="A" horiz-adv-x="688" d="M202 -2q-52 4 -124 4q-49 0 -118 -4l11 51q2 0 7.5 -0.5t7.5 -0.5q30 0 49.5 17.5t53.5 68.5q323 491 355 547h61q8 -83 79 -580q4 -32 14.5 -42.5t33.5 -10.5q3 0 12 0.5t11 0.5l-12 -50q-38 3 -122 3q-69 0 -122 -4l11 51q11 -1 33 -1q24 0 36.5 6.5t12.5 27.5 q0 50 -13 143q-3 14 -11 15q-12 3 -118 3q-71 0 -100 -1q-16 0 -26 -17q-62 -96 -75 -120q-15 -27 -15 -39q0 -18 34 -18q33 0 46 1zM438 561q-141 -217 -154 -238q-8 -13 -8 -16q0 -5 4 -7q10 -3 84 -3q64 0 89 1q13 0 13 11q0 9 -1 17q-6 51 -15.5 134t-11.5 101z" />
<glyph unicode="B" horiz-adv-x="642" d="M433 354q77 -7 116 -45.5t39 -92.5q0 -79 -45 -130t-112 -70t-156 -19q-29 0 -86 2.5t-76 2.5q-25 0 -65.5 -2t-45.5 -2l11 51q11 -1 26 -1q32 0 43 14q8 10 20 60q19 77 51 223.5t47 208.5q8 34 8 49q0 23 -38 23q-27 0 -39 -1l11 50q76 -2 124 -2q17 0 78 2t80 2 q89 0 142 -32.5t53 -96.5q0 -154 -186 -194zM256 419q-3 -11 -3 -22q0 -9 7 -13q12 -5 52 -5q90 0 152 38t62 117q0 93 -149 93q-52 0 -67 -15q-13 -13 -54 -193zM227 293q-39 -177 -39 -200q0 -19 11 -28q16 -16 97 -16q84 0 139.5 40t55.5 119q0 57 -50 87t-132 30 q-60 0 -68 -6q-10 -7 -14 -26z" />
<glyph unicode="C" horiz-adv-x="638" d="M596 118q-112 -134 -278 -134q-114 0 -183.5 76t-69.5 197q0 112 43.5 208.5t133.5 160.5t210 64q44 0 83 -13q41 -13 45 -13q18 0 25 24l44 -4q-10 -64 -12 -191l-48 -4q-9 145 -154 145q-65 0 -119 -34t-87 -87t-51 -112.5t-18 -114.5q0 -120 52 -175t136 -55 q66 0 114.5 27t96.5 74z" />
<glyph unicode="D" horiz-adv-x="734" d="M2 -2l11 51q11 -1 23 -1q33 0 44 13q12 16 22 61q83 360 99 434q6 29 6 45q0 25 -42 25q-23 0 -34 -1l11 51q99 -3 130 -3q17 0 72 1t76 1q154 0 227 -69.5t73 -196.5q0 -182 -115 -296t-312 -114q-29 0 -93 1.5t-76 1.5q-24 0 -68 -2t-54 -2zM194 131q-5 -22 -5 -36 q0 -23 24.5 -31.5t79.5 -8.5q153 0 241.5 95.5t88.5 255.5q0 214 -223 214q-72 0 -86 -11q-15 -10 -24 -48q-40 -166 -96 -430z" />
<glyph unicode="E" horiz-adv-x="614" d="M518 -1q-120 2 -401 2q-7 0 -115 -3l11 51q10 -1 27 -1q33 0 44 14q6 7 19 62q68 292 98 432q7 33 7 45q0 16 -9 20.5t-35 4.5q-21 0 -33 -1l11 51q114 -3 144 -3q217 0 326 3q-11 -69 -18 -160h-47q1 10 1 24q0 48 -19 63q-12 10 -36 13t-97 3q-45 0 -67 -2 q-20 -1 -27 -18q-11 -26 -46 -181q-3 -14 -3 -18q0 -8 5 -11q9 -6 68 -6q60 0 83.5 4.5t36.5 15.5q17 17 29 60h44q-22 -74 -48 -221h-45q3 15 3 29q0 26 -11 39q-16 17 -107 17q-62 0 -71 -7q-7 -5 -13 -30q-39 -177 -39 -196q0 -22 18.5 -31t75.5 -9q138 0 178 24 q34 21 72 105l48 -4q-29 -78 -62 -180z" />
<glyph unicode="F" horiz-adv-x="585" d="M267 -2q-108 4 -141 4q-24 0 -71.5 -2t-52.5 -2l11 51q11 -1 23 -1q37 0 46 14q9 12 21 61q61 258 98 432q7 33 7 45q0 15 -9.5 20.5t-34.5 5.5q-23 0 -33 -1l11 51q96 -3 149 -3q218 0 338 3q-4 -26 -11 -91.5t-8 -77.5h-48q2 22 2 27q0 49 -20 67q-12 11 -41.5 14.5 t-107.5 3.5q-46 0 -67 -2q-20 -1 -26 -20q-13 -39 -48 -185q-4 -20 -4 -25q0 -8 5 -11q9 -6 62 -6q62 0 83.5 4t34.5 15q19 19 30 60h45q-19 -61 -50 -224h-44q2 15 2 40q0 23 -10 31q-20 18 -106 18q-53 0 -65 -7q-7 -5 -13 -30q-25 -108 -32 -153q-6 -30 -6 -44 q0 -32 46 -32q30 0 47 1z" />
<glyph unicode="G" horiz-adv-x="716" d="M581 3l-56 -4q0 35 -17 35q-10 0 -33 -13q-64 -38 -140 -38q-133 0 -201.5 78.5t-68.5 201.5q0 82 27 158.5t76 136.5t124.5 96t165.5 36q44 0 88 -11t56 -11q15 0 27 20l39 -4q-10 -87 -10 -191l-48 -3q-6 72 -42.5 108t-127.5 36q-116 0 -198 -103t-82 -245 q0 -118 55.5 -177t146.5 -59q36 0 74 14t56 37q18 26 23 47q17 70 17 98q0 15 -11 21t-38 6q-23 0 -36 -1l11 52q72 -3 133 -3q87 0 115 3l-11 -52q-7 1 -24 1q-25 0 -36 -11q-10 -9 -22 -59q-32 -140 -32 -200z" />
<glyph unicode="H" horiz-adv-x="758" d="M251 -2q-112 4 -130 4q-24 0 -66.5 -2t-52.5 -2l11 51q11 -1 25 -1q36 0 44 12q8 10 20 62q78 334 98 424q8 33 8 57q0 23 -39 23q-26 0 -38 -1l11 51q4 0 51 -2t71 -2q15 0 127 4l-11 -51q-15 1 -28 1q-31 0 -41 -14q-11 -17 -22 -58q-7 -26 -34 -141q-2 -8 -2 -17 q0 -6 5 -9q11 -4 158 -4q145 0 158 4q10 3 16 27q6 25 16 71t14 63q8 38 8 56q0 22 -39 22q-26 0 -39 -1l11 51q5 0 52 -2t71 -2q18 0 126 4l-10 -51q-15 1 -29 1q-31 0 -41 -14q-9 -11 -21 -58q-16 -54 -48 -201q-7 -34 -19 -87t-20 -87.5t-11 -51.5q-9 -49 -9 -57 q0 -22 36 -22q27 0 44 1l-12 -51q-108 4 -130 4q-24 0 -66 -2t-52 -2l10 51q12 -1 25 -1q36 0 44 12q8 10 20 62q15 60 41 172q2 10 2 14q0 9 -4 12q-10 5 -156 5q-155 0 -164 -5q-8 -4 -12 -24q-7 -30 -14.5 -65.5t-14 -65.5t-8.5 -38q-8 -43 -8 -57q0 -22 35 -22 q28 0 44 1z" />
<glyph unicode="I" horiz-adv-x="339" d="M251 -2q-108 4 -130 4q-24 0 -66.5 -2t-52.5 -2l11 51q11 -1 25 -1q35 0 44 13q8 9 20 61q8 35 97 424q9 45 9 57q0 23 -39 23q-26 0 -38 -1l11 51q3 0 51 -2t72 -2q14 0 126 4l-10 -51q-16 1 -29 1q-29 0 -40 -14q-9 -13 -21 -58q-50 -193 -99 -427q-8 -43 -8 -57 q0 -22 38 -22q25 0 40 1z" />
<glyph unicode="J" horiz-adv-x="322" d="M380 625q-16 1 -28 1q-30 0 -39 -12q-10 -11 -22 -60q-20 -78 -53 -223.5t-46 -200.5q-28 -117 -66 -175q-35 -55 -87.5 -83.5t-102.5 -28.5q-36 0 -56 15t-20 40q0 21 13.5 34.5t34.5 13.5q31 0 43 -24q7 -14 26 -14q31 0 56 37q25 36 50.5 118t70.5 284q27 117 45 202 q7 35 7 52q0 25 -39 25q-26 0 -38 -1l11 51q2 0 51 -2t74 -2q13 0 125 4z" />
<glyph unicode="K" horiz-adv-x="663" d="M251 -2q-112 4 -133 4q-24 0 -64.5 -2t-51.5 -2l12 51q11 -1 25 -1q33 0 42 13q10 16 21 61q35 143 99 435q7 28 7 45q0 14 -9 19t-32 5q-24 0 -36 -1l11 51q9 0 54.5 -2t70.5 -2q18 0 130 4l-11 -51q-15 1 -35 1q-29 0 -39 -12q-11 -13 -23 -59q-1 -3 -35 -147 q-3 -9 -3 -18q0 -13 20 -13q33 0 81 43q169 149 169 186q0 11 -9 15.5t-35 4.5q-14 0 -23 -1l12 51q48 -4 138 -4q60 0 120 4l-11 -51q-5 1 -17 1q-42 0 -86 -43q-191 -180 -247 -227q36 -67 85.5 -146.5t80.5 -120.5q17 -23 37.5 -31.5t60.5 -8.5l-12 -50q-32 2 -74 2 q-41 0 -67 -3q-60 80 -143 236q-32 60 -47 77t-33 17q-16 0 -20 -20q-22 -93 -40 -184q-8 -40 -8 -54q0 -22 38 -22q27 0 41 1z" />
<glyph unicode="L" horiz-adv-x="595" d="M509 -1q-121 2 -393 2q-3 0 -114 -3l12 51q11 -1 24 -1q34 0 44 14q11 14 22 62q54 226 97 430q6 30 6 47q0 16 -9.5 20.5t-33.5 4.5q-21 0 -33 -1l11 51q7 0 57 -2t74 -2q22 0 134 4l-12 -51q-15 1 -41 1q-32 0 -42 -12q-11 -11 -24 -63q-48 -191 -89 -388 q-11 -55 -11 -71q0 -22 19 -30t83 -8q128 0 161 21q38 25 74 108l50 -3q-20 -50 -66 -181z" />
<glyph unicode="M" horiz-adv-x="878" d="M221 -2q-112 4 -121 4q-24 0 -65.5 -2t-48.5 -2l12 51q11 -1 25 -1q32 0 44 13q12 12 27 63q114 394 125 434q3 12 3 34q0 34 -48 34q-20 0 -25 -1l12 52q8 0 28.5 -1.5t40 -2t38.5 -0.5q66 0 95 3q3 -60 5 -72q4 -32 27.5 -181.5t32.5 -214.5q27 42 87 135t104.5 162.5 t59.5 95.5q16 26 39 75q57 -3 89 -3q3 0 111 4l-12 -52q-15 1 -33 1q-27 0 -38 -13q-9 -9 -21 -57q-6 -26 -78 -432q-5 -32 -5 -50q0 -26 43 -26q19 0 35 1l-12 -51q-120 4 -134 4q-25 0 -71 -2t-51 -2l12 51q12 -1 31 -1q32 0 44 15q8 9 18 58q3 12 34.5 185t49.5 256 q-197 -297 -326 -503h-44q-28 206 -76 509q-90 -323 -124 -458q-6 -24 -6 -36q0 -26 41 -26q25 0 38 1z" />
<glyph unicode="N" horiz-adv-x="766" d="M239 -2q-112 4 -131 4q-24 0 -62.5 -2t-46.5 -2l12 51q11 -1 26 -1q28 0 41 13q12 14 24 64q57 235 97 422q7 35 7 45q0 33 -55 34q-14 0 -25 -1l11 52q76 -4 109 -4q39 0 69 3q12 -38 49.5 -114.5t113 -220.5t96.5 -184q71 316 86 394q5 25 5 46q0 29 -42 29 q-34 0 -45 -1l12 51q10 0 38 -1.5t53 -2t44 -0.5l112 4l-12 -51q-13 1 -25 1q-27 0 -41 -11q-16 -13 -25 -50q-97 -392 -128 -569l-49 -10q-164 338 -294 565q-57 -247 -96 -444q-2 -11 -2 -32q0 -16 10.5 -21.5t33.5 -5.5q25 0 42 1z" />
<glyph unicode="O" horiz-adv-x="709" d="M694 428q0 -62 -13 -123t-42.5 -119.5t-72 -103t-105.5 -71.5t-139 -27q-126 0 -191.5 75.5t-65.5 192.5q0 192 106.5 315.5t272.5 123.5q115 0 182.5 -73t67.5 -190zM597 434q0 201 -167 201q-117 0 -193 -113.5t-76 -267.5q0 -103 43.5 -158.5t130.5 -55.5 q65 0 117 37.5t82.5 97.5t46.5 127t16 132z" />
<glyph unicode="P" horiz-adv-x="582" d="M257 -2q-112 4 -131 4q-24 0 -69 -2t-55 -2l11 51q10 -1 24 -1q37 0 47 14q7 10 19 60q23 95 97 428q8 32 8 50q0 16 -9.5 21t-31.5 5q-24 0 -36 -1l11 51q114 -3 136 -3q17 0 64 2t66 2q99 0 150.5 -40t51.5 -113q0 -237 -314 -237q-39 0 -69 4q-33 -151 -36 -167 q-8 -46 -8 -53q0 -23 40 -23q30 0 45 1zM245 364q0 -16 15 -19q15 -4 52 -4q102 0 152 42t50 130q0 110 -138 110q-53 0 -65 -11q-11 -9 -23 -59q-8 -30 -40 -167q-3 -12 -3 -22z" />
<glyph unicode="Q" horiz-adv-x="709" d="M694 428q0 -89 -25.5 -172t-85.5 -154t-145 -100q79 -57 131 -84q56 -30 90 -30q9 0 28 7t28 13l24 -43q-27 -14 -116 -64q-100 33 -302 183q-125 0 -190.5 75.5t-65.5 192.5q0 192 106.5 315.5t272.5 123.5q115 0 182.5 -73t67.5 -190zM597 434q0 201 -167 201 q-117 0 -193 -113.5t-76 -267.5q0 -103 43.5 -158.5t130.5 -55.5q65 0 117 37.5t82.5 97.5t46.5 127t16 132z" />
<glyph unicode="R" horiz-adv-x="645" d="M246 -2q-108 4 -134 4q-35 0 -111 -4l12 51q11 -1 22 -1q38 0 47 13q8 11 20 61q45 189 99 434q7 28 7 46q0 14 -10 19t-33 5q-16 0 -28 -1l12 51q111 -3 118 -3q18 0 68 0.5t76 0.5q95 0 149.5 -38.5t54.5 -109.5q0 -132 -129 -188q-22 -10 -40 -16q-15 -5 -15 -16 q0 -5 3 -17q2 -8 8.5 -23.5t7.5 -17.5q44 -101 78 -161q13 -23 30.5 -30.5t47.5 -7.5h11l-11 -51q-24 3 -76 3q-37 0 -64 -3q-40 74 -125 284q-4 10 -11.5 13t-24.5 3q-6 0 -28.5 0.5t-26.5 0.5q-13 0 -17 -3q-6 -3 -11 -27q-14 -60 -31 -147q-8 -37 -8 -50q0 -14 8 -19 t28 -5q22 0 39 1zM248 389q-3 -12 -3 -21q0 -12 12 -14q18 -3 50 -3q92 0 151.5 39t59.5 128q0 50 -38 76.5t-106 26.5q-56 0 -67 -15q-8 -11 -15 -41q-29 -109 -44 -176z" />
<glyph unicode="S" horiz-adv-x="522" d="M70 -2l-43 4q8 79 8 201h52q12 -160 162 -160q66 0 106.5 32.5t40.5 86.5q0 63 -79 116l-99 68q-89 60 -89 152q0 78 58 134t174 56q38 0 79 -13q32 -8 37 -8q15 0 22 20l40 -5q-9 -90 -13 -182h-51q-3 70 -32.5 101.5t-92.5 31.5q-60 0 -98 -28.5t-38 -80.5 q0 -60 74 -110l86 -59q60 -41 85 -80t25 -84q0 -99 -68 -151.5t-172 -52.5q-36 0 -69.5 8.5t-54 17t-25.5 8.5q-18 0 -25 -23z" />
<glyph unicode="T" horiz-adv-x="622" d="M389 -2q-3 0 -59.5 2t-80.5 2q-17 0 -121 -4l12 51q17 -1 31 -1q31 0 42 12q11 14 22 63q88 378 104 454q3 13 3 24q0 12 -12.5 16.5t-46.5 4.5q-69 0 -95 -21t-62 -102l-49 4q36 107 54 174q65 -4 266 -4q229 0 290 4q-15 -80 -28 -173l-51 -3q2 16 2 44q0 47 -17.5 62 t-84.5 15q-57 0 -66 -9q-8 -8 -15 -35q-67 -285 -104 -454q-7 -31 -7 -53q0 -23 47 -23q3 0 17 0.5t21 0.5z" />
<glyph unicode="U" horiz-adv-x="759" d="M822 625q-11 1 -27 1q-31 0 -41 -10q-14 -11 -27 -65q-29 -117 -67 -285q-33 -143 -108 -213t-214 -70q-116 0 -176 48t-60 131q0 39 20 125q3 11 26 107.5t37 159.5q7 35 7 47q0 15 -8.5 20t-33.5 5t-35 -1l12 52q70 -4 126 -4q62 0 132 4l-12 -52q-11 1 -26 1 q-36 0 -49 -12q-15 -13 -27 -63q-38 -149 -62 -258q-18 -75 -18 -111q0 -133 161 -133q107 0 162 56t81 171q54 231 62 278q5 27 5 42q0 18 -9.5 24t-35.5 6q-29 0 -38 -1l12 52q68 -4 128 -4q45 0 115 4z" />
<glyph unicode="V" horiz-adv-x="680" d="M308 -6h-64q-19 172 -90 580q-5 31 -15 41.5t-31 10.5q-19 0 -24 -1l12 51q37 -3 124 -3t125 3l-12 -51q-9 1 -38 1q-48 0 -48 -40q0 -29 10 -99q7 -49 27.5 -176.5t29.5 -192.5q94 147 209 331q50 80 64.5 108.5t14.5 46.5q0 22 -31 22q-26 0 -38 -1l12 51q49 -4 118 -4 q45 0 113 4l-12 -51q-4 1 -15 1q-25 0 -42.5 -17.5t-48.5 -66.5q-34 -53 -111.5 -173t-141 -219.5t-97.5 -155.5z" />
<glyph unicode="W" horiz-adv-x="957" d="M233 -6h-63q0 205 -16 579q-1 31 -12 42t-37 11q-13 0 -19 -1l12 51q36 -3 122 -3q83 0 121 3l-11 -51q-6 1 -38 1q-24 0 -33 -8t-11 -25q-3 -21 -3 -96q0 -80 8 -349q40 70 106 182.5t113 193.5t84 150h63q3 -56 10 -133.5t20 -195.5t20 -197q97 190 158 316 q56 118 56 140q0 21 -36 23q-6 0 -20 -0.5t-15 -0.5l12 50q51 -4 119 -4q43 0 111 4l-12 -50q-5 1 -16 1q-26 0 -42 -16t-38 -57q-70 -134 -165 -319.5t-123 -240.5h-63q-6 93 -50 529q-33 -57 -149 -252.5t-163 -276.5z" />
<glyph unicode="X" horiz-adv-x="705" d="M256 50l-10 -52q-36 3 -149 3q-88 0 -124 -3l10 52q4 0 10 -0.5t8 -0.5q27 0 45 11.5t49 41.5q27 24 238 248q-64 120 -125 232q-24 44 -62 44q-19 0 -26 -1l10 51q36 -3 131 -3q98 0 135 3l-9 -51q-5 1 -33 1q-45 0 -45 -21q0 -13 17 -52q13 -28 78 -151q92 99 122 133 q49 58 49 71q0 12 -8.5 16t-34.5 4q-7 0 -21.5 -0.5t-15.5 -0.5l10 51q36 -3 138 -3q76 0 114 3l-10 -51q-5 1 -17 1q-32 0 -79 -47q-19 -18 -218 -227q128 -241 131 -246q19 -34 33.5 -45.5t41.5 -11.5q13 0 23 1l-10 -52q-36 3 -138 3q-101 0 -144 -3l10 52q5 0 18.5 -0.5 t20.5 -0.5q48 0 48 25q0 15 -20 59q-21 44 -84 163q-129 -136 -160 -171q-36 -40 -36 -56q0 -11 10.5 -15t39.5 -5q8 0 23 0.5t16 0.5z" />
<glyph unicode="Y" horiz-adv-x="634" d="M406 49l-12 -51q-6 0 -56 2t-74 2q-18 0 -126 -4l12 51q15 -1 33 -1q31 0 42 13q10 13 22 59q2 9 15 63.5t24 101.5q-42 120 -116 293q-11 27 -23.5 37.5t-34.5 10.5q-16 0 -23 -1l12 51q37 -3 124 -3q101 0 139 3l-12 -51l-12 1h-19q-55 0 -55 -30q0 -16 13 -55 q7 -20 32.5 -85t39.5 -101q140 160 166 191q32 40 32 58q0 12 -8 17t-33 5q-33 0 -38 -1l12 51q37 -3 141 -3q74 0 112 3l-12 -51q-5 1 -15 1q-21 0 -37.5 -11t-41.5 -37q-102 -111 -259 -291q-14 -58 -36 -166q-8 -35 -8 -50q0 -23 43 -23q24 0 37 1z" />
<glyph unicode="Z" horiz-adv-x="610" d="M537 -2q-67 4 -307 4q-124 0 -234 -2l-6 20q79 91 258.5 300t258.5 300q-156 0 -194 -1q-74 -3 -103.5 -24.5t-57.5 -95.5l-46 8q21 63 54 170q65 -4 235 -4q142 0 252 2l5 -20q-106 -118 -289.5 -328.5t-232.5 -266.5q60 -4 186 -4q37 0 56 1t44.5 4.5t40 11.5 t31.5 22.5t29.5 36.5t24.5 54l47 -5q-13 -38 -52 -183z" />
<glyph unicode="[" horiz-adv-x="285" d="M172 -162q-30 2 -80 2q-73 0 -111 -2q31 129 102.5 443.5t96.5 433.5q48 -2 111 -2q51 0 83 2l-12 -50q-72 2 -109 2q-115 -480 -177 -781q69 0 107 1z" />
<glyph unicode="\" horiz-adv-x="453" d="M343 -115l-221 853h60l222 -853h-61z" />
<glyph unicode="]" horiz-adv-x="285" d="M130 715q28 -2 79 -2q74 0 112 2q-31 -129 -102.5 -443.5t-96.5 -433.5q-48 2 -111 2q-51 0 -83 -2l12 50q72 -2 109 -2q115 480 177 781q-69 0 -107 -1z" />
<glyph unicode="^" horiz-adv-x="538" d="M475 348h-63l-57 253l-172 -253h-73l224 320h66z" />
<glyph unicode="_" horiz-adv-x="492" d="M427 -122h-495l12 50h495z" />
<glyph unicode="`" horiz-adv-x="280" d="M58 696l74 37q38 -91 91 -186l-28 -15q-82 92 -137 164z" />
<glyph unicode="a" horiz-adv-x="567" d="M366 180q-69 -99 -137 -146t-120 -47q-84 0 -84 91q0 75 35 154.5t93 144.5q84 94 189 94q69 0 100 -10l15 27l71 6q-27 -75 -66 -221q-40 -148 -40 -188q0 -23 21 -23q30 0 82 36l22 -38q-90 -73 -158 -73q-54 0 -54 52q0 48 31 141zM409 386q0 33 -79 33 q-35 0 -71.5 -24t-65.5 -65q-37 -54 -59.5 -116t-22.5 -106q0 -47 36 -47q39 0 98.5 48.5t106.5 126.5q34 58 49 107q8 27 8 43z" />
<glyph unicode="b" horiz-adv-x="544" d="M186 299q38 64 104 118q77 65 141 65q37 0 61.5 -24t24.5 -77q0 -57 -22.5 -125t-61.5 -129t-98.5 -101.5t-125.5 -40.5q-70 0 -104.5 30.5t-34.5 77.5q0 30 16 99l63 264q39 161 39 194q0 19 -9 25t-37 6q-12 0 -34 -2l12 48q93 0 167 16l8 -11q-2 -8 -109 -433zM152 97 q0 -58 75 -58q53 0 101.5 59.5t74 133t25.5 128.5q0 48 -41 48q-37 0 -89 -46q-78 -69 -112 -139q-34 -71 -34 -126z" />
<glyph unicode="c" horiz-adv-x="411" d="M353 128l31 -34q-47 -51 -107.5 -79.5t-114.5 -28.5q-132 0 -132 137q0 120 71 231q37 58 91.5 93t118.5 35q56 0 82.5 -20.5t26.5 -50.5q0 -21 -14 -33.5t-32 -12.5q-39 0 -45 34q-7 29 -42 29q-55 0 -98 -62q-31 -45 -52 -105.5t-21 -114.5q0 -46 21 -69.5t57 -23.5 q75 0 159 75z" />
<glyph unicode="d" horiz-adv-x="565" d="M366 179q-73 -102 -139 -147t-118 -45q-84 0 -84 94q0 74 34 153t89 143q39 44 90 69t102 25q56 0 91 -8q38 157 38 187q0 19 -10 25t-38 6q-11 0 -33 -2l12 48q88 0 164 16l10 -11q-44 -167 -111 -446q-41 -174 -41 -200q0 -24 21 -24q31 0 82 35l22 -37 q-89 -73 -158 -73q-53 0 -53 51q0 48 30 141zM408 381q0 39 -79 39q-38 0 -77 -26t-65 -68q-35 -56 -55.5 -116t-20.5 -103q0 -46 36 -46q38 0 97.5 47.5t107.5 127.5q36 61 47 100q9 30 9 45z" />
<glyph unicode="e" horiz-adv-x="427" d="M123 199q-7 -29 -7 -58q0 -41 20 -64.5t56 -23.5q73 0 163 76l29 -34q-42 -46 -106 -77.5t-119 -31.5q-67 0 -98 34t-31 105q0 58 23.5 126t62.5 119q88 112 200 112q108 0 108 -84q0 -52 -39 -87q-80 -72 -262 -112zM133 244q94 26 151.5 63t57.5 80q0 42 -49 42 q-45 0 -91 -52t-69 -133z" />
<glyph unicode="f" horiz-adv-x="311" d="M227 415q-65 -350 -112 -494q-27 -82 -77.5 -126t-112.5 -44q-39 0 -59 15.5t-20 39.5q0 19 12 31.5t31 12.5q21 0 38 -23q11 -17 27 -17q23 0 41 20.5t36 73.5q36 104 112 511q-48 0 -71 -1l12 46q39 1 56.5 13.5t32.5 57.5q27 82 68.5 131t81.5 64t89 15 q44 0 69.5 -18.5t25.5 -43.5q0 -51 -50 -51q-34 0 -44 36q-7 23 -34 23q-39 0 -63 -27q-26 -27 -43 -65t-37 -132q72 0 106 3l-13 -52q-35 1 -102 1z" />
<glyph unicode="g" horiz-adv-x="550" d="M364 177q-69 -99 -136 -144.5t-119 -45.5q-84 0 -84 91q0 75 35 154.5t93 144.5q84 94 189 94q69 0 100 -10l15 27l71 6q-23 -63 -65 -221q-14 -52 -32 -123t-27.5 -108t-23 -77.5t-27.5 -66.5q-36 -66 -97 -106t-147 -40q-61 0 -96 22.5t-35 56.5q0 20 13 33.5t33 13.5 q38 0 48 -37q13 -40 57 -40q46 0 90 35.5t71 108.5q18 47 74 232zM408 386q0 33 -78 33q-76 0 -137 -90q-37 -54 -59.5 -115.5t-22.5 -105.5q0 -47 36 -47q39 0 98.5 48.5t106.5 126.5q34 58 49 107q7 23 7 43z" />
<glyph unicode="h" horiz-adv-x="571" d="M124 4l-88 -7q32 107 114 440q44 184 44 213q0 19 -9.5 25t-37.5 6q-11 0 -33 -2l12 48q93 0 167 16l8 -11q-2 -6 -108 -417q58 75 125.5 121t124.5 46q30 0 45 -16t15 -41q0 -7 -1 -16.5t-4.5 -23.5t-6.5 -26.5t-9.5 -35.5t-11.5 -40t-14.5 -50t-16.5 -56 q-19 -66 -19 -93q0 -22 21 -22q34 0 82 37l22 -38q-95 -74 -159 -74q-55 0 -55 47q0 35 25 118q57 184 57 223q0 29 -28 29q-48 0 -120 -69.5t-99 -158.5q-29 -95 -42 -172z" />
<glyph unicode="i" horiz-adv-x="308" d="M281 61q-96 -74 -162 -74q-53 0 -53 53q0 31 44 195q31 120 31 149q0 20 -9.5 26.5t-34.5 6.5q-21 0 -35 -2l13 47q87 0 167 17l9 -11q-6 -22 -55 -204q-6 -25 -15 -58t-12.5 -46.5t-7.5 -30.5t-5 -26.5t-1 -18.5q0 -22 22 -22q31 0 80 36zM277 654q0 -27 -16 -44 t-43 -17q-24 0 -38 14t-14 38q0 30 17 46.5t43 16.5q24 0 37.5 -15t13.5 -39z" />
<glyph unicode="j" horiz-adv-x="277" d="M237 468q-18 -61 -48 -204q-5 -25 -17.5 -85.5t-19 -90t-17.5 -74.5t-23 -82q-27 -86 -80.5 -133.5t-118.5 -47.5q-36 0 -55.5 15t-19.5 39q0 21 12 32.5t29 11.5q26 0 37 -26q7 -16 26 -16q22 0 44 22t35 66q27 91 80 339q26 126 26 150q0 20 -9.5 26.5t-34.5 6.5 q-21 0 -35 -2l12 47q88 0 168 17zM263 654q0 -27 -16 -44t-43 -17q-24 0 -38 14t-14 38q0 30 17 46.5t44 16.5q24 0 37 -15t13 -39z" />
<glyph unicode="k" horiz-adv-x="523" d="M125 3l-87 -6q21 76 90 368q61 260 61 285q0 18 -9 24.5t-38 6.5q-11 0 -33 -2l12 48q93 0 167 16l8 -11q-4 -16 -120 -481q80 114 176 190q53 41 101 41q27 0 41 -13t14 -35t-14 -34.5t-34 -12.5q-14 0 -28 9q-9 7 -22 7q-21 0 -55 -25q-32 -24 -78 -75q35 -105 72 -179 q30 -60 62 -60t81 41l25 -37q-87 -79 -150 -79q-37 0 -61 42q-39 68 -87 211q-35 -42 -48 -70q-18 -39 -27 -74q-8 -34 -19 -95z" />
<glyph unicode="l" horiz-adv-x="292" d="M274 60q-42 -34 -86.5 -53.5t-75.5 -19.5q-56 0 -56 57q0 32 44 214q91 367 91 392q0 18 -9 24.5t-36 6.5q-13 0 -35 -2l12 48q91 0 167 16l8 -11q-46 -171 -107 -427q-44 -179 -44 -219q0 -24 19 -24q36 0 84 36z" />
<glyph unicode="m" horiz-adv-x="831" d="M134 4l-88 -7q26 86 66 238q29 116 29 148q0 20 -9 27t-34 7q-20 0 -34 -2l12 47q88 0 163 17l8 -12q-24 -78 -46 -156q52 74 115 122.5t114 48.5q55 0 55 -59q0 -34 -22 -121q47 75 116.5 127.5t125.5 52.5q60 0 60 -58q0 -5 -0.5 -11.5t-2.5 -16.5t-4 -18t-6 -23 t-6.5 -25.5t-8.5 -31.5t-10 -34.5t-12 -41t-13 -45.5q-19 -71 -19 -93t21 -22q34 0 82 36l23 -37q-98 -74 -160 -74q-55 0 -55 47q0 33 25 118q6 21 16.5 57.5t16 55.5t12 43.5t9.5 40t3 25.5q0 30 -27 30q-43 0 -112 -73t-92 -150q-33 -113 -41 -177l-88 -7q4 14 49 178 q40 148 40 197q0 32 -26 32q-42 0 -109 -69.5t-94 -158.5q-29 -95 -42 -172z" />
<glyph unicode="n" horiz-adv-x="578" d="M134 4l-88 -7q36 120 66 238q29 121 29 148q0 20 -9 27t-34 7q-20 0 -34 -2l12 47q88 0 163 17l8 -12q-16 -52 -46 -156q58 76 126 123.5t126 47.5q30 0 45 -16t15 -41q0 -10 -2.5 -24t-9 -38.5t-12.5 -45.5t-18.5 -64t-21.5 -76q-18 -62 -18 -93q0 -22 20 -22 q34 0 82 37l23 -38q-96 -74 -160 -74q-54 0 -54 48q0 38 24 117q57 184 57 223q0 29 -28 29q-46 0 -119 -70t-100 -158q-29 -95 -42 -172z" />
<glyph unicode="o" horiz-adv-x="498" d="M465 298q0 -59 -21 -121t-57 -104q-71 -87 -180 -87q-49 0 -84.5 16.5t-53.5 45t-26 58.5t-8 65q0 65 26.5 129.5t74.5 111.5q33 32 77.5 51t85.5 19q166 0 166 -184zM380 327q0 107 -87 107q-49 0 -88 -43q-35 -38 -61.5 -108.5t-26.5 -137.5q0 -51 24 -82.5t67 -31.5 q62 0 100 51q30 42 51 109.5t21 135.5z" />
<glyph unicode="p" horiz-adv-x="556" d="M177 -234q-114 0 -179 -14l-10 10q44 124 121 470q28 130 28 149q0 21 -9 28t-34 7q-19 0 -33 -1l12 47q87 0 160 16l9 -11q-7 -23 -43 -159q59 83 126 128.5t117 45.5q80 0 80 -106q0 -86 -38 -175t-108.5 -151t-150.5 -62q-60 0 -90 16q-32 -129 -32 -160 q0 -19 8.5 -25t36.5 -6q8 0 41 3zM159 90q0 -49 76 -49q52 0 100.5 58.5t73.5 129t25 120.5q0 58 -40 58q-35 0 -90 -43.5t-110 -139.5q-13 -23 -24 -65.5t-11 -68.5z" />
<glyph unicode="q" horiz-adv-x="549" d="M435 -235q-112 0 -172 -13l-10 10q33 91 113 415q-64 -89 -131 -139.5t-126 -50.5q-84 0 -84 93q0 75 36 158.5t96 144.5q85 88 183 88q66 0 102 -9l15 26l68 6q-57 -184 -126 -493q-31 -136 -31 -156q0 -19 9 -25.5t36 -6.5q2 0 35 3zM409 381q0 39 -79 39 q-64 0 -121 -70q-44 -54 -71 -125t-27 -116q0 -49 38 -49q46 0 115.5 65t112.5 156q32 65 32 100z" />
<glyph unicode="r" horiz-adv-x="414" d="M134 4l-88 -7q24 80 66 239q24 89 24 148q0 19 -9 26t-34 7q-18 0 -31 -2l12 47q75 0 155 17l8 -12q-30 -115 -40 -151q95 168 184 168q58 0 58 -49q0 -25 -14.5 -40t-34.5 -15q-23 0 -36 12q-7 7 -22 7q-19 0 -44 -26q-71 -73 -110 -192q-29 -87 -44 -177z" />
<glyph unicode="s" horiz-adv-x="386" d="M269 247q46 -36 62.5 -61.5t16.5 -60.5q0 -59 -51 -99t-137 -40q-71 0 -112 28.5t-41 62.5q0 23 13 34.5t31 11.5t29 -10.5t17 -36.5q8 -43 75 -43q41 0 66 19t25 45q0 48 -62 92l-66 47q-60 43 -60 109q0 58 50 97.5t129 39.5q56 0 89.5 -20.5t33.5 -52.5 q0 -19 -11.5 -30.5t-31.5 -11.5q-31 0 -42 37q-9 30 -51 30q-39 0 -62 -19t-23 -46q0 -42 53 -79z" />
<glyph unicode="t" horiz-adv-x="322" d="M288 64q-95 -77 -162 -77q-63 0 -63 61q0 28 16 96q9 40 31.5 131t33.5 140q-50 0 -76 -1l12 46q36 1 57 9t33 30q16 30 44 87h51l-30 -123q59 0 98 3l-12 -53q-38 2 -96 2q-38 -149 -51 -207q-21 -92 -21 -123q0 -23 23 -23q36 0 89 39z" />
<glyph unicode="u" horiz-adv-x="582" d="M562 62q-92 -75 -162 -75q-51 0 -51 55q0 48 30 136q-53 -78 -112 -129q-72 -63 -137 -63q-31 0 -49 16.5t-18 48.5q0 44 28 134q51 163 51 203q0 29 -44 29q-7 0 -35 -2l11 47q93 0 176 17l9 -11q-25 -73 -70 -220q-36 -118 -36 -152q0 -31 26 -31q40 0 91 52 q41 42 77 97t53 105q25 74 42 147l91 8q-41 -136 -68 -243q-28 -108 -28 -143q0 -26 21 -26q33 0 82 37z" />
<glyph unicode="v" horiz-adv-x="524" d="M58 415l12 47q102 2 170 17l8 -12q-23 -78 -64 -244q-22 -90 -22 -126q0 -33 28 -33q62 0 129 68q43 43 72 104t29 101q0 35 -19 54q-22 19 -22 41q1 21 16.5 36t41.5 15q29 0 45.5 -21.5t16.5 -60.5q0 -62 -30 -136.5t-87 -141.5q-48 -58 -111.5 -97t-122.5 -39 q-73 0 -73 76q0 41 31 165q30 118 31 156q0 19 -9 26t-35 7q-11 0 -35 -2z" />
<glyph unicode="w" horiz-adv-x="753" d="M374 195q-42 -83 -108 -145.5t-124 -62.5q-70 0 -70 73q0 43 37 180q26 93 28 142q0 20 -9.5 27.5t-36.5 7.5q-8 0 -32 -2l12 47q108 2 168 17l9 -11q-36 -128 -66 -246q-23 -92 -23 -125q0 -32 23 -32q29 0 84 56q81 86 118 225q10 37 18 103l90 11q-14 -60 -39 -201 q-18 -102 -18 -153q0 -44 28 -44q56 0 115 80q35 46 57.5 102.5t22.5 94.5q0 35 -20 54q-22 21 -22 41q0 17 15 33t43 16t43.5 -22.5t15.5 -61.5q0 -65 -29.5 -144t-83.5 -147q-95 -122 -189 -122q-72 0 -72 88q0 51 15 121z" />
<glyph unicode="x" horiz-adv-x="532" d="M504 76q-92 -89 -153 -89q-53 0 -70 59q-16 55 -33 131q-73 -108 -117 -149q-41 -39 -89 -39q-23 0 -36.5 12t-13.5 31q0 24 12 36.5t29 12.5q7 0 18 -2.5t19 -2.5q31 0 59 32q41 45 105 134q-21 93 -36 132q-8 23 -19.5 32.5t-36.5 9.5q-19 0 -39 -2l3 47q72 3 143 21 l13 -12q10 -57 35 -159q67 96 101 126q50 45 92 45q55 0 55 -42q0 -24 -12 -36.5t-30 -12.5q-6 0 -19 4t-20 4q-27 0 -56 -31q-47 -49 -98 -121q19 -85 41 -143q16 -40 42 -40q29 0 82 47z" />
<glyph unicode="y" horiz-adv-x="567" d="M379 178q-53 -78 -112 -129q-72 -63 -137 -63q-31 0 -49 16.5t-18 48.5q0 44 28 134q51 163 51 203q0 29 -44 29q-7 0 -35 -2l11 47q93 0 176 17l9 -11q-25 -73 -70 -220q-36 -118 -36 -152q0 -31 26 -31q40 0 91 52q40 41 76.5 96.5t53.5 105.5q25 74 42 147l91 8 q-11 -37 -64 -230q-15 -53 -31 -118l-24 -97.5t-20.5 -68t-26.5 -62.5q-78 -146 -244 -146q-61 0 -96 22.5t-35 56.5q0 20 13.5 33.5t33.5 13.5q36 0 48 -37q11 -40 57 -40t89.5 35t71.5 109q11 28 24 69.5t28 92t22 71.5z" />
<glyph unicode="z" horiz-adv-x="467" d="M23 -9l-32 35q154 159 374 367q-34 -2 -161 -2q-40 0 -54 -14q-13 -13 -24 -50l-44 10q13 39 40 137q128 -9 273 -9q33 0 58 27l38 -30q-53 -65 -124 -139.5t-119 -120t-130 -121.5q7 2 25 2q56 0 140 -15q47 -9 70 -9q21 0 31 16t18 58l45 -8q-15 -73 -35.5 -110 t-61.5 -37q-26 0 -136.5 19t-138.5 19q-26 0 -52 -25z" />
<glyph unicode="{" horiz-adv-x="317" d="M203 -170q-87 0 -125 23.5t-38 77.5q0 32 9 73l31 135q10 42 10 63q0 61 -75 65l10 45q60 3 82.5 27.5t40.5 103.5l31 129q14 56 34 86t67 47.5t128 17.5l-11 -46q-67 0 -94.5 -21.5t-46.5 -100.5l-30 -122q-18 -75 -43 -106t-85 -42q71 -21 71 -87q0 -23 -11 -67 l-29 -126q-9 -41 -9 -67q0 -34 21 -47t72 -15z" />
<glyph unicode="|" horiz-adv-x="241" d="M267 725l-209 -909h-72l210 909h71z" />
<glyph unicode="}" horiz-adv-x="317" d="M125 723q86 0 124.5 -23.5t38.5 -77.5q0 -27 -10 -73l-30 -135q-10 -42 -10 -63q0 -61 75 -65l-10 -45q-60 -3 -83 -28t-41 -103l-30 -129q-14 -56 -34.5 -86t-67 -47.5t-127.5 -17.5l10 45q68 0 95.5 22t46.5 101l29 122q18 74 43.5 105.5t84.5 42.5q-70 21 -70 87 q0 27 10 67l30 125q9 36 9 67q0 35 -21.5 48t-71.5 15z" />
<glyph unicode="~" horiz-adv-x="585" d="M108 214l-43 41q70 91 147 91q22 0 44.5 -8.5t69.5 -35.5q51 -30 77 -30q50 0 105 69l40 -42q-70 -88 -146 -88q-45 0 -99 32q-68 40 -96 40q-27 0 -49.5 -15.5t-49.5 -53.5z" />
<glyph unicode="&#xa1;" horiz-adv-x="319" d="M135 268h51q-18 -88 -42 -246.5t-27 -171.5q-7 -34 -22 -50t-46 -16q-52 0 -52 43q0 17 7 38q8 29 57.5 177t73.5 226zM194 479q24 0 38.5 -14t14.5 -38q0 -29 -18 -49.5t-47 -20.5q-23 0 -38.5 14t-15.5 38q0 28 16.5 49t49.5 21z" />
<glyph unicode="&#xa2;" horiz-adv-x="471" d="M363 571l-20 -84q2 0 6 0.5t6 0.5q56 0 82.5 -20t26.5 -50q0 -20 -13.5 -33t-31.5 -13q-35 0 -44 33q-8 25 -44 28l-86 -374q70 8 147 75l30 -34q-83 -89 -192 -104l-21 -93h-46l21 91q-62 4 -94 40t-32 96q0 118 74 231q65 98 165 121l21 89h45zM141 153q0 -71 59 -90 l84 362q-37 -13 -67 -54q-33 -44 -54.5 -104t-21.5 -114z" />
<glyph unicode="&#xa3;" horiz-adv-x="572" d="M483 -2q-144 3 -258 3q-178 0 -230 -2l12 51q47 12 91 45q62 48 81 169h-105l12 56h100q3 17 7 52t7 52q16 104 83 163.5t165 59.5q65 0 98 -27t33 -65q0 -56 -54 -56q-43 0 -45 40q-1 30 -15.5 42t-42.5 12q-97 0 -126 -137q-3 -14 -10.5 -63t-12.5 -73h152l-12 -55 h-149q-15 -63 -41.5 -109t-84.5 -85h123q133 0 164 14q18 8 30 26t25 62l50 -4q-17 -51 -47 -171z" />
<glyph unicode="&#xa4;" horiz-adv-x="552" d="M479 64l-62 65q-51 -40 -124 -40q-74 0 -123 38l-63 -64l-45 47l64 65q-42 55 -42 128q0 74 41 126l-62 65l44 46l63 -64q52 41 124 41q70 0 123 -40l61 63l45 -46l-62 -65q41 -51 41 -126t-41 -127l64 -66zM433 303q0 64 -39.5 107t-99.5 43q-62 0 -102 -42.5 t-40 -105.5q0 -67 39.5 -110t102.5 -43q60 0 99.5 43.5t39.5 107.5z" />
<glyph unicode="&#xa5;" horiz-adv-x="647" d="M525 194h-182q-7 -32 -15 -77q-7 -34 -7 -47q0 -22 40 -22q26 0 39 1l-12 -51q-5 0 -55 2t-74 2q-12 0 -120 -4l12 51q18 -1 31 -1q32 0 41 12q11 14 21 57q1 4 7.5 32.5t10.5 44.5h-178l10 49h180l4 18l-22 57h-144l11 50h112l-69 162q-11 25 -23.5 35t-33.5 10 q-13 0 -19 -1l12 51q35 -3 125 -3t128 3l-12 -51h-13q-12 1 -20 1q-50 0 -50 -26q0 -23 12 -54q6 -15 16.5 -40t26 -62t26.5 -64q19 22 53 59t58.5 65t39.5 46q31 38 31 52q0 13 -8.5 18t-34.5 6q-8 0 -19 -1h-11l12 51q35 -3 135 -3q74 0 111 3l-12 -51q-4 1 -14 1 q-23 0 -38 -10t-40 -36q-44 -43 -151 -161h113l-11 -50h-147l-49 -55l-4 -20h181z" />
<glyph unicode="&#xa6;" horiz-adv-x="241" d="M267 725l-88 -386h-71l89 386h70zM147 202l-89 -386h-70l88 386h71z" />
<glyph unicode="&#xa7;" horiz-adv-x="475" d="M300 85q45 -64 45 -117q0 -75 -62 -121.5t-155 -46.5q-67 0 -106.5 27.5t-39.5 68.5q0 22 14 35.5t36 13.5q37 0 50 -50q10 -40 66 -40q49 0 82 26t33 74q0 36 -20 71t-79 101q-56 62 -78 102t-22 77q0 53 35 92t99 59q-32 40 -32 93q0 80 61 123.5t146 43.5 q60 0 94.5 -25t34.5 -66q0 -24 -13 -36.5t-33 -12.5q-39 0 -45 35q-6 51 -62 51q-46 0 -75.5 -25.5t-29.5 -62.5q0 -67 85 -152q61 -61 85 -102t24 -77q0 -102 -138 -159zM362 227q0 25 -18 55t-73 89q-24 28 -40 42q-4 4 -14 4t-21 -7q-57 -31 -57 -85q0 -49 78 -140 q25 -30 43 -47q8 -8 18 -8t20 6q64 36 64 91z" />
<glyph unicode="&#xa8;" horiz-adv-x="277" d="M102 622q0 -22 -13.5 -36t-34.5 -14q-19 0 -30.5 11t-11.5 30q0 23 14.5 37t34.5 14q19 0 30 -12t11 -30zM265 622q0 -22 -13 -36t-34 -14q-19 0 -31 11t-12 30q0 23 14.5 37t34.5 14t30.5 -11.5t10.5 -30.5z" />
<glyph unicode="&#xa9;" horiz-adv-x="849" d="M82 352q0 156 106 262t263 106q159 0 265.5 -105.5t106.5 -262.5q0 -156 -106 -261t-265 -105t-264.5 105t-105.5 261zM125 352q0 -140 92.5 -233.5t234.5 -93.5q141 0 234 93.5t93 233.5q0 141 -93.5 235t-234.5 94q-140 0 -233 -94.5t-93 -234.5zM601 208 q-77 -89 -194 -89q-78 0 -126.5 52t-48.5 132q0 115 71 198.5t194 83.5q31 0 59 -10q26 -8 29 -8q14 0 17 17l37 -3q-8 -52 -8 -131l-42 -3q-6 96 -100 96q-86 0 -135.5 -72t-49.5 -153q0 -75 35.5 -110.5t88.5 -35.5q45 0 77 16.5t66 47.5z" />
<glyph unicode="&#xaa;" horiz-adv-x="420" d="M322 441q-52 -72 -104.5 -105.5t-90.5 -33.5q-69 0 -69 73q0 57 27.5 117t72.5 108q66 71 148 71q56 0 80 -7l11 21l63 5q-7 -21 -15 -46.5t-18.5 -61.5t-18.5 -61q-30 -96 -30 -137q0 -17 16 -17q22 0 61 23l19 -31q-72 -57 -128 -57q-45 0 -45 42q0 31 21 97zM357 603 q0 25 -57 25q-55 0 -101 -64q-63 -92 -63 -165q0 -33 26 -33q30 0 73 34.5t79 92.5q26 40 37 77q6 22 6 33z" />
<glyph unicode="&#xab;" horiz-adv-x="442" d="M205 81l-29 -22q-73 90 -153 177l5 22q135 91 230 168l24 -26q-29 -28 -89.5 -83.5t-79.5 -73.5q15 -27 92 -162zM377 81l-29 -22q-85 106 -153 177l5 22q135 91 230 168l24 -26q-29 -28 -89.5 -83.5t-79.5 -73.5q16 -30 48 -85t44 -77z" />
<glyph unicode="&#xac;" horiz-adv-x="605" d="M482 41h-61l44 193h-388l13 61h449z" />
<glyph unicode="&#xad;" horiz-adv-x="322" d="M66 291q22 -2 113 -2q75 0 113 2l-17 -72q-29 1 -111 1q-76 0 -114 -1z" />
<glyph unicode="&#xae;" horiz-adv-x="849" d="M82 352q0 156 106 262t263 106q159 0 265.5 -105.5t106.5 -262.5q0 -156 -106 -261t-265 -105t-264.5 105t-105.5 261zM125 352q0 -140 92.5 -233.5t234.5 -93.5q141 0 234 93.5t93 233.5q0 141 -93.5 235t-234.5 94q-140 0 -233 -94.5t-93 -234.5zM407 140q-51 3 -90 3 q-10 0 -85 -3l8 39q7 -1 18 -1q22 0 28 9q6 8 13 39q29 116 60 266q5 25 5 33q0 18 -24 18q-16 0 -27 -1l8 40q50 -2 92 -2q11 0 43 0.5t50 0.5q67 -1 103.5 -29.5t36.5 -74.5q0 -76 -73 -112q-13 -6 -37 -15q-12 -4 -12 -16q0 -7 4 -17q31 -70 57 -114q15 -25 52 -25h13 l-8 -38q-22 2 -54 2q-20 0 -48 -2q-54 107 -78 176q-6 15 -28 15q-5 0 -15.5 0.5t-13.5 0.5q-8 0 -12 -2t-8 -19q-14 -59 -18 -81q-5 -32 -5 -36q0 -16 23 -16h17l12 1zM403 387q0 -7 6 -9q16 -2 33 -2q129 0 129 94q0 69 -86 69q-38 0 -46 -10q-7 -7 -12 -27 q-4 -14 -22 -98q-2 -14 -2 -17z" />
<glyph unicode="&#xaf;" horiz-adv-x="277" d="M8 570l13 58h248l-13 -58h-248z" />
<glyph unicode="&#xb0;" horiz-adv-x="307" d="M370 585q0 -57 -39 -94t-96 -37q-56 0 -91.5 33.5t-35.5 91.5q0 60 40 97t98 37t91 -34t33 -94zM323 584q0 42 -22.5 65t-58.5 23q-34 0 -59 -24.5t-25 -65.5t22 -64t58 -23t60.5 25t24.5 64z" />
<glyph unicode="&#xb1;" horiz-adv-x="605" d="M323 175h-61l44 189h-194l12 59h194l44 190h61l-43 -190h193l-12 -59h-194zM488 45h-449l14 60h449z" />
<glyph unicode="&#xb2;" horiz-adv-x="368" d="M378 459q-40 2 -145 2q-91 0 -147 -2l2 39q14 10 48.5 33t52.5 36t47.5 35t45.5 38.5t33.5 37t25.5 41t8 41.5q0 25 -18 41.5t-46 16.5q-31 0 -45 -13.5t-19 -38.5q-6 -26 -35 -26q-31 0 -31 29q0 38 40 65t95 27q62 0 94.5 -27.5t32.5 -71.5q0 -36 -19 -70.5t-57.5 -67 t-74.5 -56.5t-91 -56q18 -1 56 -1q65 0 83 1.5t29 9.5q14 9 30 50l34 -3q-5 -15 -29 -110z" />
<glyph unicode="&#xb3;" horiz-adv-x="368" d="M306 669q44 -5 68 -28.5t24 -58.5q0 -66 -51.5 -99t-119.5 -33q-67 0 -96.5 23t-29.5 51q0 40 37 40q28 0 30 -26q1 -45 65 -45q45 0 70.5 21t25.5 60q0 33 -23.5 52t-65.5 19q-4 0 -15 -0.5t-16 -0.5l8 43q6 -1 28 -1q44 0 71.5 21t27.5 62q0 21 -14 35t-43 14 q-28 0 -40.5 -9.5t-17.5 -30.5q-7 -27 -36 -27q-12 0 -20.5 7t-8.5 19q0 35 36.5 59.5t90.5 24.5q58 0 88.5 -24t30.5 -59q0 -86 -104 -109z" />
<glyph unicode="&#xb4;" horiz-adv-x="280" d="M166 729l75 -37q-62 -62 -177 -160l-24 15q89 124 126 182z" />
<glyph unicode="&#xb5;" horiz-adv-x="582" d="M64 -209h-85l156 549q7 25 7 48q0 29 -44 29q-7 0 -35 -2l11 47q93 0 176 17l9 -11q-25 -73 -70 -220q-34 -111 -34 -145q0 -31 26 -31q42 0 89 47q42 41 77.5 95.5t52.5 104.5q25 74 42 147l91 8q-41 -136 -68 -243q-28 -108 -28 -143q0 -26 21 -26q33 0 82 37l22 -37 q-92 -75 -162 -75q-51 0 -51 55q0 48 30 136q-53 -79 -107 -129q-61 -55 -112 -55q-26 0 -40 18q-33 -120 -56 -221z" />
<glyph unicode="&#xb6;" horiz-adv-x="590" d="M483 283q-4 -18 -16.5 -76.5t-21.5 -100.5q-31 -129 -70 -192q-40 -63 -99.5 -100t-122.5 -37q-44 0 -65.5 17.5t-21.5 44.5q0 19 13.5 33t34.5 14q34 0 46 -31q7 -15 43 -15q26 0 52.5 20t42.5 52q27 53 44 109t44 167q-24 -9 -80 -9q-84 0 -137.5 45t-53.5 131 q0 72 30 137.5t89 110.5q93 71 289 71q36 0 126 4l-11 -51q-49 0 -65 -13t-31 -68q-8 -28 -59 -263zM436 617q-39 0 -70 -35q-36 -43 -58.5 -117.5t-22.5 -135.5q0 -95 82 -95q22 0 29 16q6 11 14 43q48 205 58 271q2 16 2 22q0 31 -34 31z" />
<glyph unicode="&#xb7;" horiz-adv-x="223" d="M123 248q-22 0 -37 14t-15 39q0 29 18.5 47.5t44.5 18.5q23 0 37 -14.5t14 -39.5q0 -29 -18 -47t-44 -18z" />
<glyph unicode="&#xb8;" horiz-adv-x="277" d="M42 -253l8 42q118 0 118 61q0 19 -16.5 31.5t-45.5 12.5l-6 16q10 17 27 49t23 43h41q-25 -46 -31 -60q36 -4 55.5 -24.5t19.5 -51.5q0 -33 -19 -57.5t-49.5 -37t-62 -18.5t-62.5 -6z" />
<glyph unicode="&#xb9;" horiz-adv-x="368" d="M343 459q-8 0 -44.5 1t-55.5 1q-17 0 -51.5 -1t-46.5 -1l9 38q7 -1 21 -1q29 0 39 10q7 7 15 36q31 123 49 213q3 13 3 26q0 16 -19 16q-21 0 -46 -5v36q65 9 142 36l10 -9q-29 -89 -77 -312q-4 -16 -4 -28q0 -19 31 -19q23 0 33 1z" />
<glyph unicode="&#xba;" horiz-adv-x="401" d="M436 538q0 -45 -16 -92.5t-44 -79.5q-27 -31 -67.5 -48.5t-81.5 -17.5q-74 0 -107 41.5t-33 98.5q0 50 20 99.5t57 84.5q25 25 62.5 39t71.5 14q70 0 104 -37.5t34 -101.5zM358 561q0 76 -65 76q-39 0 -67 -33q-26 -28 -46 -83.5t-20 -102.5q0 -36 18.5 -57.5t49.5 -21.5 q49 0 76 37q22 29 38 82.5t16 102.5z" />
<glyph unicode="&#xbb;" horiz-adv-x="442" d="M255 405l30 21q77 -93 152 -177l-4 -21q-124 -84 -231 -169l-24 27q27 25 85.5 79l84.5 78q-13 24 -28.5 51t-35 60t-29.5 51zM83 405l30 21q77 -93 152 -177l-5 -21q-117 -79 -230 -169l-24 27q27 25 85.5 79l84.5 78q-13 24 -28.5 51t-35 60t-29.5 51z" />
<glyph unicode="&#xbc;" horiz-adv-x="815" d="M562 629h52l-361 -629h-53zM275 234q-7 0 -44 1t-57 1q-17 0 -51 -1t-46 -1l8 38q7 -1 22 -1q29 0 39 10q8 8 14 36q22 87 49 213q4 17 4 27q0 16 -20 16q-21 0 -46 -5l2 35q72 12 141 36l10 -9q-31 -93 -78 -311q-3 -13 -3 -28q0 -20 31 -20q23 0 33 1zM694 -2 q-57 3 -102 3q-14 0 -46.5 -1t-44.5 -1l8 38q9 -1 24 -1q27 0 36 10q8 9 14 35l6 28q-125 0 -186 -1l-1 27q102 98 265 264h50q-13 -48 -26 -107l-32 -137q45 0 72 1l-15 -47q-26 1 -68 1l-6 -26q-4 -24 -4 -28q0 -21 33 -21q19 0 32 1zM600 155l39 161q-79 -83 -159 -161 h120z" />
<glyph unicode="&#xbd;" horiz-adv-x="815" d="M559 629h52l-361 -629h-53zM271 234q-7 0 -44 1t-57 1q-17 0 -51 -1t-46 -1l8 38q7 -1 22 -1q29 0 39 10q8 8 14 36q22 87 49 213q4 17 4 27q0 16 -20 16q-21 0 -46 -5l2 35q72 12 141 36l10 -9q-31 -93 -78 -311q-3 -13 -3 -28q0 -20 31 -20q23 0 33 1zM721 -1 q-40 2 -145 2q-91 0 -147 -2l2 39q14 10 48.5 33t52.5 36t47.5 35t45.5 38.5t33.5 37t25.5 41t8 41.5q0 25 -18 41.5t-46 16.5q-31 0 -45 -13.5t-19 -38.5q-6 -26 -35 -26q-31 0 -31 29q0 38 40 65t95 27q62 0 94.5 -27.5t32.5 -71.5q0 -36 -19 -70.5t-57.5 -67t-74.5 -56.5 t-91 -56q18 -1 56 -1q65 0 83 1.5t29 9.5q14 9 30 50l34 -3q-5 -15 -29 -110z" />
<glyph unicode="&#xbe;" horiz-adv-x="815" d="M591 629h52l-361 -629h-53zM266 444q44 -5 67.5 -28.5t23.5 -58.5q0 -66 -51 -99t-119 -33q-67 0 -96.5 23t-29.5 51q0 40 37 40q28 0 30 -26q1 -45 65 -45q45 0 70.5 21t25.5 60q0 33 -23.5 52t-65.5 19q-4 0 -15 -0.5t-16 -0.5l8 44q6 -1 28 -1q44 0 71.5 21t27.5 61 q0 22 -14.5 36t-42.5 14t-41 -10t-18 -30q-7 -28 -35 -28q-12 0 -20.5 7t-8.5 19q0 36 36.5 60.5t90.5 24.5q57 0 88 -24t31 -59q0 -87 -104 -110zM709 -2q-57 3 -102 3q-14 0 -46.5 -1t-44.5 -1l8 38q9 -1 24 -1q27 0 36 10q8 9 14 35l6 28q-125 0 -186 -1l-1 27 q102 98 265 264h50q-13 -48 -26 -107l-32 -137q45 0 72 1l-15 -47q-26 1 -68 1l-6 -26q-4 -24 -4 -28q0 -21 33 -21q19 0 32 1zM615 155l39 161q-79 -83 -159 -161h120z" />
<glyph unicode="&#xbf;" horiz-adv-x="452" d="M247 269l50 8q6 -19 6 -53q0 -58 -30 -93t-95 -73q-48 -28 -73 -57.5t-25 -74.5q0 -39 22 -63t61 -24q53 0 76.5 19.5t29.5 59.5q5 38 49 38q40 0 40 -46q0 -48 -53 -88t-149 -40q-84 0 -127 38t-43 100q0 63 40 106.5t119 86.5q55 31 79.5 56.5t24.5 67.5q0 20 -2 32z M302 479q24 0 38.5 -14t14.5 -38q0 -29 -18 -49.5t-47 -20.5q-23 0 -38.5 14t-15.5 38q0 28 16.5 49t49.5 21z" />
<glyph unicode="&#xc0;" horiz-adv-x="688" d="M202 -2q-52 4 -124 4q-49 0 -118 -4l11 51q2 0 7.5 -0.5t7.5 -0.5q30 0 49.5 17.5t53.5 68.5q323 491 355 547h61q8 -83 79 -580q4 -32 14.5 -42.5t33.5 -10.5q3 0 12 0.5t11 0.5l-12 -50q-38 3 -122 3q-69 0 -122 -4l11 51q11 -1 33 -1q24 0 36.5 6.5t12.5 27.5 q0 50 -13 143q-3 14 -11 15q-12 3 -118 3q-71 0 -100 -1q-16 0 -26 -17q-62 -96 -75 -120q-15 -27 -15 -39q0 -18 34 -18q33 0 46 1zM438 561q-141 -217 -154 -238q-8 -13 -8 -16q0 -5 4 -7q10 -3 84 -3q64 0 89 1q13 0 13 11q0 9 -1 17q-6 51 -15.5 134t-11.5 101zM346 845 l66 50q39 -56 126 -160l-24 -22q-87 61 -168 132z" />
<glyph unicode="&#xc1;" horiz-adv-x="688" d="M202 -2q-52 4 -124 4q-49 0 -118 -4l11 51q2 0 7.5 -0.5t7.5 -0.5q30 0 49.5 17.5t53.5 68.5q323 491 355 547h61q8 -83 79 -580q4 -32 14.5 -42.5t33.5 -10.5q3 0 12 0.5t11 0.5l-12 -50q-38 3 -122 3q-69 0 -122 -4l11 51q11 -1 33 -1q24 0 36.5 6.5t12.5 27.5 q0 50 -13 143q-3 14 -11 15q-12 3 -118 3q-71 0 -100 -1q-16 0 -26 -17q-62 -96 -75 -120q-15 -27 -15 -39q0 -18 34 -18q33 0 46 1zM438 561q-141 -217 -154 -238q-8 -13 -8 -16q0 -5 4 -7q10 -3 84 -3q64 0 89 1q13 0 13 11q0 9 -1 17q-6 51 -15.5 134t-11.5 101zM564 894 l55 -58q-68 -45 -212 -123l-17 22q93 80 174 159z" />
<glyph unicode="&#xc2;" horiz-adv-x="688" d="M202 -2q-52 4 -124 4q-49 0 -118 -4l11 51q2 0 7.5 -0.5t7.5 -0.5q30 0 49.5 17.5t53.5 68.5q323 491 355 547h61q8 -83 79 -580q4 -32 14.5 -42.5t33.5 -10.5q3 0 12 0.5t11 0.5l-12 -50q-38 3 -122 3q-69 0 -122 -4l11 51q11 -1 33 -1q24 0 36.5 6.5t12.5 27.5 q0 50 -13 143q-3 14 -11 15q-12 3 -118 3q-71 0 -100 -1q-16 0 -26 -17q-62 -96 -75 -120q-15 -27 -15 -39q0 -18 34 -18q33 0 46 1zM438 561q-141 -217 -154 -238q-8 -13 -8 -16q0 -5 4 -7q10 -3 84 -3q64 0 89 1q13 0 13 11q0 9 -1 17q-6 51 -15.5 134t-11.5 101zM620 725 l-25 -19q-69 57 -105 89q-125 -78 -143 -90l-22 24q55 45 148 129h58q81 -121 89 -133z" />
<glyph unicode="&#xc3;" horiz-adv-x="688" d="M202 -2q-52 4 -124 4q-49 0 -118 -4l11 51q2 0 7.5 -0.5t7.5 -0.5q30 0 49.5 17.5t53.5 68.5q323 491 355 547h61q8 -83 79 -580q4 -32 14.5 -42.5t33.5 -10.5q3 0 12 0.5t11 0.5l-12 -50q-38 3 -122 3q-69 0 -122 -4l11 51q11 -1 33 -1q24 0 36.5 6.5t12.5 27.5 q0 50 -13 143q-3 14 -11 15q-12 3 -118 3q-71 0 -100 -1q-16 0 -26 -17q-62 -96 -75 -120q-15 -27 -15 -39q0 -18 34 -18q33 0 46 1zM438 561q-141 -217 -154 -238q-8 -13 -8 -16q0 -5 4 -7q10 -3 84 -3q64 0 89 1q13 0 13 11q0 9 -1 17q-6 51 -15.5 134t-11.5 101zM485 820 l26 -12q22 -10 40 -10q31 0 55 50l35 -12q-22 -53 -46 -76.5t-54 -23.5q-25 0 -61 15l-28 11q-29 13 -40 13q-25 0 -55 -49l-33 15q46 95 104 95q20 0 57 -16z" />
<glyph unicode="&#xc4;" horiz-adv-x="688" d="M202 -2q-52 4 -124 4q-49 0 -118 -4l11 51q2 0 7.5 -0.5t7.5 -0.5q30 0 49.5 17.5t53.5 68.5q323 491 355 547h61q8 -83 79 -580q4 -32 14.5 -42.5t33.5 -10.5q3 0 12 0.5t11 0.5l-12 -50q-38 3 -122 3q-69 0 -122 -4l11 51q11 -1 33 -1q24 0 36.5 6.5t12.5 27.5 q0 50 -13 143q-3 14 -11 15q-12 3 -118 3q-71 0 -100 -1q-16 0 -26 -17q-62 -96 -75 -120q-15 -27 -15 -39q0 -18 34 -18q33 0 46 1zM438 561q-141 -217 -154 -238q-8 -13 -8 -16q0 -5 4 -7q10 -3 84 -3q64 0 89 1q13 0 13 11q0 9 -1 17q-6 51 -15.5 134t-11.5 101zM443 788 q0 -22 -13.5 -36.5t-34.5 -14.5q-19 0 -30.5 11.5t-11.5 30.5q0 23 14.5 37t34.5 14q19 0 30 -12t11 -30zM619 788q0 -22 -13 -36.5t-34 -14.5q-19 0 -31 11.5t-12 30.5q0 23 14.5 37t34.5 14q19 0 30 -12t11 -30z" />
<glyph unicode="&#xc5;" horiz-adv-x="688" d="M202 -2q-52 4 -124 4q-49 0 -118 -4l11 51q2 0 7.5 -0.5t7.5 -0.5q30 0 49.5 17.5t53.5 68.5q323 491 355 547h61q8 -83 79 -580q4 -32 14.5 -42.5t33.5 -10.5q3 0 12 0.5t11 0.5l-12 -50q-38 3 -122 3q-69 0 -122 -4l11 51q11 -1 33 -1q24 0 36.5 6.5t12.5 27.5 q0 50 -13 143q-3 14 -11 15q-12 3 -118 3q-71 0 -100 -1q-16 0 -26 -17q-62 -96 -75 -120q-15 -27 -15 -39q0 -18 34 -18q33 0 46 1zM438 561q-141 -217 -154 -238q-8 -13 -8 -16q0 -5 4 -7q10 -3 84 -3q64 0 89 1q13 0 13 11q0 9 -1 17q-6 51 -15.5 134t-11.5 101zM493 896 q40 0 63.5 -22.5t23.5 -60.5q0 -42 -28 -70t-70 -28q-39 0 -64 23.5t-25 62.5q0 40 28.5 67.5t71.5 27.5zM491 862q-24 0 -39.5 -16.5t-15.5 -42.5q0 -23 12.5 -38t35.5 -15q24 0 39.5 17t15.5 43q0 24 -14 38t-34 14z" />
<glyph unicode="&#xc6;" horiz-adv-x="988" d="M226 -2q-51 4 -136 4q-67 0 -131 -4l11 51q1 0 11.5 -0.5t13.5 -0.5q46 0 115 85q108 131 331 409q36 45 36 61q0 8 -2 12t-13 7.5t-33 3.5q-20 0 -32 -1l12 51q108 -3 251 -3q221 0 330 3q-5 -31 -19 -160h-46q1 10 1 24q0 49 -20 64q-12 9 -35.5 12t-95.5 3 q-48 0 -69 -2q-20 -1 -27 -19q-9 -25 -44 -179q-3 -11 -3 -19t6 -12q10 -5 65 -5q61 0 84 4.5t36 15.5q17 15 29 60h44q-24 -85 -48 -221h-44q2 13 2 34q0 25 -11 34q-17 17 -106 17q-61 0 -71 -7q-8 -4 -14 -30q-38 -173 -38 -197q0 -21 18.5 -30t74.5 -9q137 0 176 23 q37 21 75 106l48 -4q-21 -52 -62 -180q-120 2 -383 2q-20 0 -134 -3l12 51q6 -1 29 -1q32 0 41 12q8 11 20 60l22 94q4 15 4 27q0 11 -7 14q-7 5 -96 5q-68 0 -96 -1q-14 -1 -33 -23q-36 -44 -80 -103q-37 -48 -37 -63q0 -21 37 -22q7 0 24.5 0.5t18.5 0.5zM349 324 q0 -6 6 -7q12 -2 67 -2q53 0 80 1q13 0 21 8q7 9 14 35q42 176 53 231q2 12 2 15q0 10 -8 10q-9 0 -29 -24q-45 -52 -181 -226q-25 -34 -25 -41z" />
<glyph unicode="&#xc7;" horiz-adv-x="638" d="M190 -262l9 43q120 2 120 64q0 19 -17 32t-47 13l-6 17l42 79q-103 9 -164.5 83t-61.5 188q0 112 43.5 208.5t133.5 160.5t210 64q41 0 81.5 -13t46.5 -13q18 0 25 24l44 -4q-10 -64 -12 -191l-48 -4q-9 145 -154 145q-65 0 -119 -34t-87 -87t-51 -112.5t-18 -114.5 q0 -120 52 -175t136 -55q66 0 114.5 27t96.5 74l37 -39q-105 -127 -262 -133l-24 -45q38 -4 57.5 -25t19.5 -54q0 -45 -34.5 -74t-76 -39t-86.5 -10z" />
<glyph unicode="&#xc8;" horiz-adv-x="614" d="M518 -1q-120 2 -401 2q-7 0 -115 -3l11 51q10 -1 27 -1q33 0 44 14q6 7 19 62q68 292 98 432q7 33 7 45q0 16 -9 20.5t-35 4.5q-21 0 -33 -1l11 51q114 -3 144 -3q217 0 326 3q-11 -69 -18 -160h-47q1 10 1 24q0 48 -19 63q-12 10 -36 13t-97 3q-45 0 -67 -2 q-20 -1 -27 -18q-11 -26 -46 -181q-3 -14 -3 -18q0 -8 5 -11q9 -6 68 -6q60 0 83.5 4.5t36.5 15.5q17 17 29 60h44q-22 -74 -48 -221h-45q3 15 3 29q0 26 -11 39q-16 17 -107 17q-62 0 -71 -7q-7 -5 -13 -30q-39 -177 -39 -196q0 -22 18.5 -31t75.5 -9q138 0 178 24 q34 21 72 105l48 -4q-29 -78 -62 -180zM250 845l66 50q39 -56 126 -160l-24 -22q-87 61 -168 132z" />
<glyph unicode="&#xc9;" horiz-adv-x="614" d="M518 -1q-120 2 -401 2q-7 0 -115 -3l11 51q10 -1 27 -1q33 0 44 14q6 7 19 62q68 292 98 432q7 33 7 45q0 16 -9 20.5t-35 4.5q-21 0 -33 -1l11 51q114 -3 144 -3q217 0 326 3q-11 -69 -18 -160h-47q1 10 1 24q0 48 -19 63q-12 10 -36 13t-97 3q-45 0 -67 -2 q-20 -1 -27 -18q-11 -26 -46 -181q-3 -14 -3 -18q0 -8 5 -11q9 -6 68 -6q60 0 83.5 4.5t36.5 15.5q17 17 29 60h44q-22 -74 -48 -221h-45q3 15 3 29q0 26 -11 39q-16 17 -107 17q-62 0 -71 -7q-7 -5 -13 -30q-39 -177 -39 -196q0 -22 18.5 -31t75.5 -9q138 0 178 24 q34 21 72 105l48 -4q-29 -78 -62 -180zM514 894l55 -58q-68 -45 -212 -123l-17 22q93 80 174 159z" />
<glyph unicode="&#xca;" horiz-adv-x="614" d="M518 -1q-120 2 -401 2q-7 0 -115 -3l11 51q10 -1 27 -1q33 0 44 14q6 7 19 62q68 292 98 432q7 33 7 45q0 16 -9 20.5t-35 4.5q-21 0 -33 -1l11 51q114 -3 144 -3q217 0 326 3q-11 -69 -18 -160h-47q1 10 1 24q0 48 -19 63q-12 10 -36 13t-97 3q-45 0 -67 -2 q-20 -1 -27 -18q-11 -26 -46 -181q-3 -14 -3 -18q0 -8 5 -11q9 -6 68 -6q60 0 83.5 4.5t36.5 15.5q17 17 29 60h44q-22 -74 -48 -221h-45q3 15 3 29q0 26 -11 39q-16 17 -107 17q-62 0 -71 -7q-7 -5 -13 -30q-39 -177 -39 -196q0 -22 18.5 -31t75.5 -9q138 0 178 24 q34 21 72 105l48 -4q-29 -78 -62 -180zM550 725l-25 -19q-69 57 -105 89q-125 -78 -143 -90l-22 24q55 45 148 129h58q81 -121 89 -133z" />
<glyph unicode="&#xcb;" horiz-adv-x="614" d="M518 -1q-120 2 -401 2q-7 0 -115 -3l11 51q10 -1 27 -1q33 0 44 14q6 7 19 62q68 292 98 432q7 33 7 45q0 16 -9 20.5t-35 4.5q-21 0 -33 -1l11 51q114 -3 144 -3q217 0 326 3q-11 -69 -18 -160h-47q1 10 1 24q0 48 -19 63q-12 10 -36 13t-97 3q-45 0 -67 -2 q-20 -1 -27 -18q-11 -26 -46 -181q-3 -14 -3 -18q0 -8 5 -11q9 -6 68 -6q60 0 83.5 4.5t36.5 15.5q17 17 29 60h44q-22 -74 -48 -221h-45q3 15 3 29q0 26 -11 39q-16 17 -107 17q-62 0 -71 -7q-7 -5 -13 -30q-39 -177 -39 -196q0 -22 18.5 -31t75.5 -9q138 0 178 24 q34 21 72 105l48 -4q-29 -78 -62 -180zM360 788q0 -22 -13.5 -36.5t-34.5 -14.5q-19 0 -30.5 11.5t-11.5 30.5q0 23 14.5 37t34.5 14q19 0 30 -12t11 -30zM536 788q0 -22 -13 -36.5t-34 -14.5q-19 0 -31 11.5t-12 30.5q0 23 14.5 37t34.5 14q19 0 30 -12t11 -30z" />
<glyph unicode="&#xcc;" horiz-adv-x="339" d="M251 -2q-108 4 -130 4q-24 0 -66.5 -2t-52.5 -2l11 51q11 -1 25 -1q35 0 44 13q8 9 20 61q8 35 97 424q9 45 9 57q0 23 -39 23q-26 0 -38 -1l11 51q3 0 51 -2t72 -2q14 0 126 4l-10 -51q-16 1 -29 1q-29 0 -40 -14q-9 -13 -21 -58q-50 -193 -99 -427q-8 -43 -8 -57 q0 -22 38 -22q25 0 40 1zM150 845l66 50q39 -56 126 -160l-24 -22q-87 61 -168 132z" />
<glyph unicode="&#xcd;" horiz-adv-x="339" d="M251 -2q-108 4 -130 4q-24 0 -66.5 -2t-52.5 -2l11 51q11 -1 25 -1q35 0 44 13q8 9 20 61q8 35 97 424q9 45 9 57q0 23 -39 23q-26 0 -38 -1l11 51q3 0 51 -2t72 -2q14 0 126 4l-10 -51q-16 1 -29 1q-29 0 -40 -14q-9 -13 -21 -58q-50 -193 -99 -427q-8 -43 -8 -57 q0 -22 38 -22q25 0 40 1zM387 894l55 -58q-68 -45 -212 -123l-17 22q93 80 174 159z" />
<glyph unicode="&#xce;" horiz-adv-x="339" d="M251 -2q-108 4 -130 4q-24 0 -66.5 -2t-52.5 -2l11 51q11 -1 25 -1q35 0 44 13q8 9 20 61q8 35 97 424q9 45 9 57q0 23 -39 23q-26 0 -38 -1l11 51q3 0 51 -2t72 -2q14 0 126 4l-10 -51q-16 1 -29 1q-29 0 -40 -14q-9 -13 -21 -58q-50 -193 -99 -427q-8 -43 -8 -57 q0 -22 38 -22q25 0 40 1zM420 725l-25 -19q-69 57 -105 89q-125 -78 -143 -90l-22 24q55 45 148 129h58q81 -121 89 -133z" />
<glyph unicode="&#xcf;" horiz-adv-x="339" d="M251 -2q-108 4 -130 4q-24 0 -66.5 -2t-52.5 -2l11 51q11 -1 25 -1q35 0 44 13q8 9 20 61q8 35 97 424q9 45 9 57q0 23 -39 23q-26 0 -38 -1l11 51q3 0 51 -2t72 -2q14 0 126 4l-10 -51q-16 1 -29 1q-29 0 -40 -14q-9 -13 -21 -58q-50 -193 -99 -427q-8 -43 -8 -57 q0 -22 38 -22q25 0 40 1zM243 788q0 -22 -13.5 -36.5t-34.5 -14.5q-19 0 -30.5 11.5t-11.5 30.5q0 23 14.5 37t34.5 14q19 0 30 -12t11 -30zM419 788q0 -22 -13 -36.5t-34 -14.5q-19 0 -31 11.5t-12 30.5q0 23 14.5 37t34.5 14q19 0 30 -12t11 -30z" />
<glyph unicode="&#xd0;" horiz-adv-x="734" d="M76 385q38 -2 86 -2q8 34 22 96t17 77q6 29 6 45q0 25 -42 25q-23 0 -34 -1l11 51q99 -3 130 -3q17 0 72 1t76 1q154 0 227 -69.5t73 -196.5q0 -182 -115 -296t-312 -114q-29 0 -93 1.5t-76 1.5q-24 0 -68 -2t-54 -2l11 51q11 -1 23 -1q33 0 44 13q12 16 22 61l47 204 q-15 0 -44 -0.5t-43 -0.5zM194 131q-5 -22 -5 -36q0 -23 24.5 -31.5t79.5 -8.5q153 0 241.5 95.5t88.5 255.5q0 214 -223 214q-72 0 -86 -11q-15 -10 -24 -48q-6 -22 -42 -178h19q116 0 179 2l-15 -60q-48 1 -176 1h-19z" />
<glyph unicode="&#xd1;" horiz-adv-x="766" d="M239 -2q-112 4 -131 4q-24 0 -62.5 -2t-46.5 -2l12 51q11 -1 26 -1q28 0 41 13q12 14 24 64q57 235 97 422q7 35 7 45q0 33 -55 34q-14 0 -25 -1l11 52q76 -4 109 -4q39 0 69 3q12 -38 49.5 -114.5t113 -220.5t96.5 -184q71 316 86 394q5 25 5 46q0 29 -42 29 q-34 0 -45 -1l12 51q10 0 38 -1.5t53 -2t44 -0.5l112 4l-12 -51q-13 1 -25 1q-27 0 -41 -11q-16 -13 -25 -50q-97 -392 -128 -569l-49 -10q-164 338 -294 565q-57 -247 -96 -444q-2 -11 -2 -32q0 -16 10.5 -21.5t33.5 -5.5q25 0 42 1zM509 820l26 -12q23 -10 40 -10 q31 0 55 50l35 -12q-22 -53 -46 -76.5t-54 -23.5q-25 0 -61 15l-28 11q-29 13 -40 13q-25 0 -55 -49l-33 15q46 95 104 95q20 0 57 -16z" />
<glyph unicode="&#xd2;" horiz-adv-x="709" d="M694 428q0 -62 -13 -123t-42.5 -119.5t-72 -103t-105.5 -71.5t-139 -27q-126 0 -191.5 75.5t-65.5 192.5q0 192 106.5 315.5t272.5 123.5q115 0 182.5 -73t67.5 -190zM597 434q0 201 -167 201q-117 0 -193 -113.5t-76 -267.5q0 -103 43.5 -158.5t130.5 -55.5 q65 0 117 37.5t82.5 97.5t46.5 127t16 132zM313 845l66 50q39 -56 126 -160l-24 -22q-87 61 -168 132z" />
<glyph unicode="&#xd3;" horiz-adv-x="709" d="M694 428q0 -62 -13 -123t-42.5 -119.5t-72 -103t-105.5 -71.5t-139 -27q-126 0 -191.5 75.5t-65.5 192.5q0 192 106.5 315.5t272.5 123.5q115 0 182.5 -73t67.5 -190zM597 434q0 201 -167 201q-117 0 -193 -113.5t-76 -267.5q0 -103 43.5 -158.5t130.5 -55.5 q65 0 117 37.5t82.5 97.5t46.5 127t16 132zM537 894l55 -58q-68 -45 -212 -123l-17 22q93 80 174 159z" />
<glyph unicode="&#xd4;" horiz-adv-x="709" d="M694 428q0 -62 -13 -123t-42.5 -119.5t-72 -103t-105.5 -71.5t-139 -27q-126 0 -191.5 75.5t-65.5 192.5q0 192 106.5 315.5t272.5 123.5q115 0 182.5 -73t67.5 -190zM597 434q0 201 -167 201q-117 0 -193 -113.5t-76 -267.5q0 -103 43.5 -158.5t130.5 -55.5 q65 0 117 37.5t82.5 97.5t46.5 127t16 132zM606 725l-25 -19q-69 57 -105 89q-125 -78 -143 -90l-22 24q55 45 148 129h58q81 -121 89 -133z" />
<glyph unicode="&#xd5;" horiz-adv-x="709" d="M694 428q0 -62 -13 -123t-42.5 -119.5t-72 -103t-105.5 -71.5t-139 -27q-126 0 -191.5 75.5t-65.5 192.5q0 192 106.5 315.5t272.5 123.5q115 0 182.5 -73t67.5 -190zM597 434q0 201 -167 201q-117 0 -193 -113.5t-76 -267.5q0 -103 43.5 -158.5t130.5 -55.5 q65 0 117 37.5t82.5 97.5t46.5 127t16 132zM460 820l26 -12q22 -10 40 -10q31 0 55 50l35 -12q-22 -53 -46 -76.5t-54 -23.5q-25 0 -61 15l-28 11q-29 13 -40 13q-25 0 -55 -49l-33 15q46 95 104 95q20 0 57 -16z" />
<glyph unicode="&#xd6;" horiz-adv-x="709" d="M694 428q0 -62 -13 -123t-42.5 -119.5t-72 -103t-105.5 -71.5t-139 -27q-126 0 -191.5 75.5t-65.5 192.5q0 192 106.5 315.5t272.5 123.5q115 0 182.5 -73t67.5 -190zM597 434q0 201 -167 201q-117 0 -193 -113.5t-76 -267.5q0 -103 43.5 -158.5t130.5 -55.5 q65 0 117 37.5t82.5 97.5t46.5 127t16 132zM428 788q0 -22 -13.5 -36.5t-34.5 -14.5q-19 0 -30.5 11.5t-11.5 30.5q0 23 14.5 37t34.5 14q19 0 30 -12t11 -30zM604 788q0 -22 -13 -36.5t-34 -14.5q-19 0 -31 11.5t-12 30.5q0 23 14.5 37t34.5 14q19 0 30 -12t11 -30z" />
<glyph unicode="&#xd7;" horiz-adv-x="605" d="M471 157l-47 -40l-112 138l-168 -139l-34 43l168 140l-111 136l48 40l111 -136l167 141l35 -45l-168 -140z" />
<glyph unicode="&#xd8;" horiz-adv-x="709" d="M694 428q0 -62 -13 -123t-42.5 -119.5t-72 -103t-105.5 -71.5t-139 -27q-110 0 -175 59l-58 -65l-38 36l61 69q-47 68 -47 169q0 192 106.5 315.5t272.5 123.5q96 0 160 -53l58 65l39 -36l-60 -67q53 -70 53 -172zM597 434q0 59 -15 100l-383 -432q43 -62 136 -62 q65 0 117 37.5t82.5 97.5t46.5 127t16 132zM161 254q0 -59 13 -101l382 430q-42 52 -126 52q-117 0 -193 -113.5t-76 -267.5z" />
<glyph unicode="&#xd9;" horiz-adv-x="759" d="M822 625q-11 1 -27 1q-31 0 -41 -10q-14 -11 -27 -65q-29 -117 -67 -285q-33 -143 -108 -213t-214 -70q-116 0 -176 48t-60 131q0 39 20 125q3 11 26 107.5t37 159.5q7 35 7 47q0 15 -8.5 20t-33.5 5t-35 -1l12 52q70 -4 126 -4q62 0 132 4l-12 -52q-11 1 -26 1 q-36 0 -49 -12q-15 -13 -27 -63q-38 -149 -62 -258q-18 -75 -18 -111q0 -133 161 -133q107 0 162 56t81 171q54 231 62 278q5 27 5 42q0 18 -9.5 24t-35.5 6q-29 0 -38 -1l12 52q68 -4 128 -4q45 0 115 4zM335 845l66 50q39 -56 126 -160l-24 -22q-87 61 -168 132z" />
<glyph unicode="&#xda;" horiz-adv-x="759" d="M822 625q-11 1 -27 1q-31 0 -41 -10q-14 -11 -27 -65q-29 -117 -67 -285q-33 -143 -108 -213t-214 -70q-116 0 -176 48t-60 131q0 39 20 125q3 11 26 107.5t37 159.5q7 35 7 47q0 15 -8.5 20t-33.5 5t-35 -1l12 52q70 -4 126 -4q62 0 132 4l-12 -52q-11 1 -26 1 q-36 0 -49 -12q-15 -13 -27 -63q-38 -149 -62 -258q-18 -75 -18 -111q0 -133 161 -133q107 0 162 56t81 171q54 231 62 278q5 27 5 42q0 18 -9.5 24t-35.5 6q-29 0 -38 -1l12 52q68 -4 128 -4q45 0 115 4zM580 894l55 -58q-68 -45 -212 -123l-17 22q93 80 174 159z" />
<glyph unicode="&#xdb;" horiz-adv-x="759" d="M822 625q-11 1 -27 1q-31 0 -41 -10q-14 -11 -27 -65q-29 -117 -67 -285q-33 -143 -108 -213t-214 -70q-116 0 -176 48t-60 131q0 39 20 125q3 11 26 107.5t37 159.5q7 35 7 47q0 15 -8.5 20t-33.5 5t-35 -1l12 52q70 -4 126 -4q62 0 132 4l-12 -52q-11 1 -26 1 q-36 0 -49 -12q-15 -13 -27 -63q-38 -149 -62 -258q-18 -75 -18 -111q0 -133 161 -133q107 0 162 56t81 171q54 231 62 278q5 27 5 42q0 18 -9.5 24t-35.5 6q-29 0 -38 -1l12 52q68 -4 128 -4q45 0 115 4zM629 725l-25 -19q-69 57 -105 89q-125 -78 -143 -90l-22 24 q55 45 148 129h58q81 -121 89 -133z" />
<glyph unicode="&#xdc;" horiz-adv-x="759" d="M822 625q-11 1 -27 1q-31 0 -41 -10q-14 -11 -27 -65q-29 -117 -67 -285q-33 -143 -108 -213t-214 -70q-116 0 -176 48t-60 131q0 39 20 125q3 11 26 107.5t37 159.5q7 35 7 47q0 15 -8.5 20t-33.5 5t-35 -1l12 52q70 -4 126 -4q62 0 132 4l-12 -52q-11 1 -26 1 q-36 0 -49 -12q-15 -13 -27 -63q-38 -149 -62 -258q-18 -75 -18 -111q0 -133 161 -133q107 0 162 56t81 171q54 231 62 278q5 27 5 42q0 18 -9.5 24t-35.5 6q-29 0 -38 -1l12 52q68 -4 128 -4q45 0 115 4zM451 788q0 -22 -13.5 -36.5t-34.5 -14.5q-19 0 -30.5 11.5 t-11.5 30.5q0 23 14.5 37t34.5 14q19 0 30 -12t11 -30zM627 788q0 -22 -13 -36.5t-34 -14.5q-19 0 -31 11.5t-12 30.5q0 23 14.5 37t34.5 14q19 0 30 -12t11 -30z" />
<glyph unicode="&#xdd;" horiz-adv-x="634" d="M406 49l-12 -51q-6 0 -56 2t-74 2q-18 0 -126 -4l12 51q15 -1 33 -1q31 0 42 13q10 13 22 59q2 9 15 63.5t24 101.5q-42 120 -116 293q-11 27 -23.5 37.5t-34.5 10.5q-16 0 -23 -1l12 51q37 -3 124 -3q101 0 139 3l-12 -51l-12 1h-19q-55 0 -55 -30q0 -16 13 -55 q7 -20 32.5 -85t39.5 -101q140 160 166 191q32 40 32 58q0 12 -8 17t-33 5q-33 0 -38 -1l12 51q37 -3 141 -3q74 0 112 3l-12 -51q-5 1 -15 1q-21 0 -37.5 -11t-41.5 -37q-102 -111 -259 -291q-14 -58 -36 -166q-8 -35 -8 -50q0 -23 43 -23q24 0 37 1zM529 894l55 -58 q-68 -45 -212 -123l-17 22q93 80 174 159z" />
<glyph unicode="&#xde;" horiz-adv-x="582" d="M260 -2q-112 4 -139 4q-24 0 -66.5 -2t-52.5 -2l11 51q11 -1 25 -1q35 0 44 13q8 9 20 61q8 35 97 424q9 45 9 57q0 23 -39 23q-26 0 -38 -1l11 51q3 0 51 -2t72 -2q14 0 126 4l-10 -51q-16 1 -29 1q-29 0 -40 -14q-10 -12 -26 -77q45 3 90 3q99 0 151.5 -40t52.5 -112 q0 -237 -309 -237q-29 0 -74 3q-13 -63 -13 -81q0 -23 42 -23q29 0 44 1zM215 226q0 -16 15 -19q18 -5 52 -5q202 0 202 172q0 50 -32.5 80.5t-105.5 30.5q-53 0 -66 -12q-12 -10 -24 -59q-13 -52 -38 -167z" />
<glyph unicode="&#xdf;" horiz-adv-x="549" d="M145 415q-49 0 -73 -1l11 46q40 1 58 14.5t35 60.5q74 205 233 205q67 0 103 -34t36 -86q0 -55 -31 -99.5t-86 -89.5q-30 -26 -42.5 -40.5t-12.5 -30.5q0 -23 61 -88q79 -82 79 -137q0 -66 -51 -107.5t-129 -41.5q-63 0 -95.5 23.5t-32.5 56.5q0 22 12 35t30 13 q29 0 38 -33q6 -25 19 -35t40 -10q37 0 63 18t26 48q0 26 -14 50.5t-54 71.5q-7 8 -24.5 27t-22.5 25.5t-14 19t-11.5 21.5t-2.5 20q0 25 15 46.5t59 63.5q96 90 96 165t-78 75q-21 0 -42.5 -12.5t-34.5 -33.5q-45 -64 -69 -181q-7 -37 -26.5 -137.5t-31 -157t-30 -130 t-35.5 -119.5q-63 -165 -192 -165q-37 0 -57.5 15.5t-20.5 40.5q0 18 12.5 30.5t30.5 12.5q23 0 38 -26q7 -14 24 -14q59 0 83 88q46 165 111 517z" />
<glyph unicode="&#xe0;" horiz-adv-x="567" d="M366 180q-69 -99 -137 -146t-120 -47q-84 0 -84 91q0 75 35 154.5t93 144.5q84 94 189 94q69 0 100 -10l15 27l71 6q-27 -75 -66 -221q-40 -148 -40 -188q0 -23 21 -23q30 0 82 36l22 -38q-90 -73 -158 -73q-54 0 -54 52q0 48 31 141zM409 386q0 33 -79 33 q-35 0 -71.5 -24t-65.5 -65q-37 -54 -59.5 -116t-22.5 -106q0 -47 36 -47q39 0 98.5 48.5t106.5 126.5q34 58 49 107q8 27 8 43zM254 696l74 37q38 -91 91 -186l-28 -15q-82 92 -137 164z" />
<glyph unicode="&#xe1;" horiz-adv-x="567" d="M366 180q-69 -99 -137 -146t-120 -47q-84 0 -84 91q0 75 35 154.5t93 144.5q84 94 189 94q69 0 100 -10l15 27l71 6q-27 -75 -66 -221q-40 -148 -40 -188q0 -23 21 -23q30 0 82 36l22 -38q-90 -73 -158 -73q-54 0 -54 52q0 48 31 141zM409 386q0 33 -79 33 q-35 0 -71.5 -24t-65.5 -65q-37 -54 -59.5 -116t-22.5 -106q0 -47 36 -47q39 0 98.5 48.5t106.5 126.5q34 58 49 107q8 27 8 43zM446 729l75 -37q-62 -62 -177 -160l-24 15q89 124 126 182z" />
<glyph unicode="&#xe2;" horiz-adv-x="567" d="M366 180q-69 -99 -137 -146t-120 -47q-84 0 -84 91q0 75 35 154.5t93 144.5q84 94 189 94q69 0 100 -10l15 27l71 6q-27 -75 -66 -221q-40 -148 -40 -188q0 -23 21 -23q30 0 82 36l22 -38q-90 -73 -158 -73q-54 0 -54 52q0 48 31 141zM409 386q0 33 -79 33 q-35 0 -71.5 -24t-65.5 -65q-37 -54 -59.5 -116t-22.5 -106q0 -47 36 -47q39 0 98.5 48.5t106.5 126.5q34 58 49 107q8 27 8 43zM501 542l-28 -16q-44 62 -83 110q-54 -45 -130 -112l-26 23q74 75 148 159h47q20 -51 72 -164z" />
<glyph unicode="&#xe3;" horiz-adv-x="567" d="M366 180q-69 -99 -137 -146t-120 -47q-84 0 -84 91q0 75 35 154.5t93 144.5q84 94 189 94q69 0 100 -10l15 27l71 6q-27 -75 -66 -221q-40 -148 -40 -188q0 -23 21 -23q30 0 82 36l22 -38q-90 -73 -158 -73q-54 0 -54 52q0 48 31 141zM409 386q0 33 -79 33 q-35 0 -71.5 -24t-65.5 -65q-37 -54 -59.5 -116t-22.5 -106q0 -47 36 -47q39 0 98.5 48.5t106.5 126.5q34 58 49 107q8 27 8 43zM395 642l29 -13q19 -9 40 -9q28 0 50 48l32 -12q-21 -54 -43 -75.5t-51 -21.5q-26 0 -60 15l-26 11q-31 14 -42 14q-27 0 -51 -48l-31 14 q44 94 99 94q16 0 54 -17z" />
<glyph unicode="&#xe4;" horiz-adv-x="567" d="M366 180q-69 -99 -137 -146t-120 -47q-84 0 -84 91q0 75 35 154.5t93 144.5q84 94 189 94q69 0 100 -10l15 27l71 6q-27 -75 -66 -221q-40 -148 -40 -188q0 -23 21 -23q30 0 82 36l22 -38q-90 -73 -158 -73q-54 0 -54 52q0 48 31 141zM409 386q0 33 -79 33 q-35 0 -71.5 -24t-65.5 -65q-37 -54 -59.5 -116t-22.5 -106q0 -47 36 -47q39 0 98.5 48.5t106.5 126.5q34 58 49 107q8 27 8 43zM363 622q0 -22 -13.5 -36t-34.5 -14q-19 0 -30.5 11t-11.5 30q0 23 14.5 37t34.5 14q19 0 30 -12t11 -30zM526 622q0 -22 -13 -36t-34 -14 q-19 0 -31 11t-12 30q0 23 14.5 37t34.5 14t30.5 -11.5t10.5 -30.5z" />
<glyph unicode="&#xe5;" horiz-adv-x="567" d="M366 180q-69 -99 -137 -146t-120 -47q-84 0 -84 91q0 75 35 154.5t93 144.5q84 94 189 94q69 0 100 -10l15 27l71 6q-27 -75 -66 -221q-40 -148 -40 -188q0 -23 21 -23q30 0 82 36l22 -38q-90 -73 -158 -73q-54 0 -54 52q0 48 31 141zM409 386q0 33 -79 33 q-35 0 -71.5 -24t-65.5 -65q-37 -54 -59.5 -116t-22.5 -106q0 -47 36 -47q39 0 98.5 48.5t106.5 126.5q34 58 49 107q8 27 8 43zM405 719q41 0 65.5 -23.5t24.5 -62.5q0 -42 -29 -71t-72 -29q-40 0 -65.5 24.5t-25.5 64.5q0 41 29 69t73 28zM402 685q-25 0 -41 -17.5 t-16 -44.5q0 -24 14 -39.5t37 -15.5q25 0 41 17.5t16 43.5t-14.5 41t-36.5 15z" />
<glyph unicode="&#xe6;" horiz-adv-x="742" d="M699 95q-43 -46 -106.5 -77.5t-118.5 -31.5q-60 0 -91 28t-35 88q-1 14 -1 45q-130 -160 -238 -160q-84 0 -84 91q0 75 35 154.5t93 144.5q84 94 190 94q70 0 101 -10l17 32l68 7l-26 -68q61 50 131 50q105 0 105 -84q0 -50 -41 -87q-81 -73 -261 -112q-6 -32 -6 -58 q0 -41 19.5 -64.5t55.5 -23.5q73 0 163 76zM409 386q0 33 -79 33q-34 0 -71 -24t-66 -65q-37 -54 -59.5 -116t-22.5 -106q0 -47 36 -47q39 0 98.5 48.5t106.5 126.5q34 58 49 107q8 27 8 43zM447 244q95 26 152.5 63t57.5 80q0 18 -12.5 30t-36.5 12q-46 0 -91.5 -52 t-69.5 -133z" />
<glyph unicode="&#xe7;" horiz-adv-x="411" d="M47 -253l8 42q117 0 117 61q0 19 -17 31.5t-46 12.5l-6 16q27 49 40 77q-116 9 -116 136q0 120 71 231q37 58 91.5 93t118.5 35q56 0 82.5 -20.5t26.5 -50.5q0 -20 -14 -33t-32 -13q-39 0 -45 34q-7 29 -42 29q-55 0 -98 -62q-31 -45 -52 -105.5t-21 -114.5 q0 -46 21 -69.5t57 -23.5q75 0 159 75l31 -34q-85 -92 -196 -106q-17 -32 -22 -46q36 -4 56 -24.5t20 -51.5q0 -43 -33.5 -71t-74 -38t-84.5 -10z" />
<glyph unicode="&#xe8;" horiz-adv-x="427" d="M123 199q-7 -29 -7 -58q0 -41 20 -64.5t56 -23.5q73 0 163 76l29 -34q-42 -46 -106 -77.5t-119 -31.5q-67 0 -98 34t-31 105q0 58 23.5 126t62.5 119q88 112 200 112q108 0 108 -84q0 -52 -39 -87q-80 -72 -262 -112zM133 244q94 26 151.5 63t57.5 80q0 42 -49 42 q-45 0 -91 -52t-69 -133zM185 696l74 37q38 -91 91 -186l-28 -15q-82 92 -137 164z" />
<glyph unicode="&#xe9;" horiz-adv-x="427" d="M123 199q-7 -29 -7 -58q0 -41 20 -64.5t56 -23.5q73 0 163 76l29 -34q-42 -46 -106 -77.5t-119 -31.5q-67 0 -98 34t-31 105q0 58 23.5 126t62.5 119q88 112 200 112q108 0 108 -84q0 -52 -39 -87q-80 -72 -262 -112zM133 244q94 26 151.5 63t57.5 80q0 42 -49 42 q-45 0 -91 -52t-69 -133zM398 729l75 -37q-62 -62 -177 -160l-24 15q89 124 126 182z" />
<glyph unicode="&#xea;" horiz-adv-x="427" d="M123 199q-7 -29 -7 -58q0 -41 20 -64.5t56 -23.5q73 0 163 76l29 -34q-42 -46 -106 -77.5t-119 -31.5q-67 0 -98 34t-31 105q0 58 23.5 126t62.5 119q88 112 200 112q108 0 108 -84q0 -52 -39 -87q-80 -72 -262 -112zM133 244q94 26 151.5 63t57.5 80q0 42 -49 42 q-45 0 -91 -52t-69 -133zM445 542l-28 -16q-44 62 -83 110q-54 -45 -130 -112l-26 23q74 75 148 159h47q20 -51 72 -164z" />
<glyph unicode="&#xeb;" horiz-adv-x="427" d="M123 199q-7 -29 -7 -58q0 -41 20 -64.5t56 -23.5q73 0 163 76l29 -34q-42 -46 -106 -77.5t-119 -31.5q-67 0 -98 34t-31 105q0 58 23.5 126t62.5 119q88 112 200 112q108 0 108 -84q0 -52 -39 -87q-80 -72 -262 -112zM133 244q94 26 151.5 63t57.5 80q0 42 -49 42 q-45 0 -91 -52t-69 -133zM294 622q0 -22 -13.5 -36t-34.5 -14q-19 0 -30.5 11t-11.5 30q0 23 14.5 37t34.5 14q19 0 30 -12t11 -30zM457 622q0 -22 -13 -36t-34 -14q-19 0 -31 11t-12 30q0 23 14.5 37t34.5 14t30.5 -11.5t10.5 -30.5z" />
<glyph unicode="&#xec;" horiz-adv-x="308" d="M281 61q-96 -74 -162 -74q-53 0 -53 53q0 31 44 195q31 120 31 149q0 20 -9.5 26.5t-34.5 6.5q-21 0 -35 -2l13 47q87 0 167 17l9 -11q-6 -22 -55 -204q-6 -25 -15 -58t-12.5 -46.5t-7.5 -30.5t-5 -26.5t-1 -18.5q0 -22 22 -22q31 0 80 36zM71 696l74 37q38 -91 91 -186 l-28 -15q-82 92 -137 164z" />
<glyph unicode="&#xed;" horiz-adv-x="308" d="M281 61q-96 -74 -162 -74q-53 0 -53 53q0 31 44 195q31 120 31 149q0 20 -9.5 26.5t-34.5 6.5q-21 0 -35 -2l13 47q87 0 167 17l9 -11q-6 -22 -55 -204q-6 -25 -15 -58t-12.5 -46.5t-7.5 -30.5t-5 -26.5t-1 -18.5q0 -22 22 -22q31 0 80 36zM257 729l75 -37 q-62 -62 -177 -160l-24 15q89 124 126 182z" />
<glyph unicode="&#xee;" horiz-adv-x="308" d="M281 61q-96 -74 -162 -74q-53 0 -53 53q0 31 44 195q31 120 31 149q0 20 -9.5 26.5t-34.5 6.5q-21 0 -35 -2l13 47q87 0 167 17l9 -11q-6 -22 -55 -204q-6 -25 -15 -58t-12.5 -46.5t-7.5 -30.5t-5 -26.5t-1 -18.5q0 -22 22 -22q31 0 80 36zM329 542l-28 -16 q-44 62 -83 110q-54 -45 -130 -112l-26 23q74 75 148 159h47q20 -51 72 -164z" />
<glyph unicode="&#xef;" horiz-adv-x="308" d="M281 61q-96 -74 -162 -74q-53 0 -53 53q0 31 44 195q31 120 31 149q0 20 -9.5 26.5t-34.5 6.5q-21 0 -35 -2l13 47q87 0 167 17l9 -11q-6 -22 -55 -204q-6 -25 -15 -58t-12.5 -46.5t-7.5 -30.5t-5 -26.5t-1 -18.5q0 -22 22 -22q31 0 80 36zM175 622q0 -22 -13.5 -36 t-34.5 -14q-19 0 -30.5 11t-11.5 30q0 23 14.5 37t34.5 14q19 0 30 -12t11 -30zM338 622q0 -22 -13 -36t-34 -14q-19 0 -31 11t-12 30q0 23 14.5 37t34.5 14t30.5 -11.5t10.5 -30.5z" />
<glyph unicode="&#xf0;" horiz-adv-x="498" d="M396 681l22 -43l-72 -35q119 -111 119 -297q0 -62 -20 -125t-58 -108q-71 -87 -180 -87q-49 0 -84.5 16.5t-53.5 45t-26 58.5t-8 65q0 66 25.5 128t73.5 108q72 67 161 67q46 0 70 -20q-25 65 -83 117l-114 -56l-21 45q27 11 94 44q-54 38 -109 56l21 44q86 -20 153 -69 q78 39 90 46zM379 319q0 107 -86 107q-50 0 -90 -41q-35 -36 -60.5 -104t-25.5 -136q0 -51 24 -82.5t67 -31.5q62 0 100 51q29 41 50 107t21 130z" />
<glyph unicode="&#xf1;" horiz-adv-x="578" d="M134 4l-88 -7q36 120 66 238q29 121 29 148q0 20 -9 27t-34 7q-20 0 -34 -2l12 47q88 0 163 17l8 -12q-16 -52 -46 -156q58 76 126 123.5t126 47.5q30 0 45 -16t15 -41q0 -10 -2.5 -24t-9 -38.5t-12.5 -45.5t-18.5 -64t-21.5 -76q-18 -62 -18 -93q0 -22 20 -22 q34 0 82 37l23 -38q-96 -74 -160 -74q-54 0 -54 48q0 38 24 117q57 184 57 223q0 29 -28 29q-46 0 -119 -70t-100 -158q-29 -95 -42 -172zM343 642l29 -13q19 -9 40 -9q28 0 50 48l32 -12q-21 -54 -43 -75.5t-51 -21.5q-26 0 -60 15l-26 11q-32 14 -42 14q-27 0 -51 -48 l-31 14q44 94 99 94q16 0 54 -17z" />
<glyph unicode="&#xf2;" horiz-adv-x="498" d="M465 298q0 -59 -21 -121t-57 -104q-71 -87 -180 -87q-49 0 -84.5 16.5t-53.5 45t-26 58.5t-8 65q0 65 26.5 129.5t74.5 111.5q33 32 77.5 51t85.5 19q166 0 166 -184zM380 327q0 107 -87 107q-49 0 -88 -43q-35 -38 -61.5 -108.5t-26.5 -137.5q0 -51 24 -82.5t67 -31.5 q62 0 100 51q30 42 51 109.5t21 135.5zM195 696l74 37q38 -91 91 -186l-28 -15q-82 92 -137 164z" />
<glyph unicode="&#xf3;" horiz-adv-x="498" d="M465 298q0 -59 -21 -121t-57 -104q-71 -87 -180 -87q-49 0 -84.5 16.5t-53.5 45t-26 58.5t-8 65q0 65 26.5 129.5t74.5 111.5q33 32 77.5 51t85.5 19q166 0 166 -184zM380 327q0 107 -87 107q-49 0 -88 -43q-35 -38 -61.5 -108.5t-26.5 -137.5q0 -51 24 -82.5t67 -31.5 q62 0 100 51q30 42 51 109.5t21 135.5zM390 729l75 -37q-62 -62 -177 -160l-24 15q89 124 126 182z" />
<glyph unicode="&#xf4;" horiz-adv-x="498" d="M465 298q0 -59 -21 -121t-57 -104q-71 -87 -180 -87q-49 0 -84.5 16.5t-53.5 45t-26 58.5t-8 65q0 65 26.5 129.5t74.5 111.5q33 32 77.5 51t85.5 19q166 0 166 -184zM380 327q0 107 -87 107q-49 0 -88 -43q-35 -38 -61.5 -108.5t-26.5 -137.5q0 -51 24 -82.5t67 -31.5 q62 0 100 51q30 42 51 109.5t21 135.5zM449 542l-28 -16q-44 62 -83 110q-54 -45 -130 -112l-26 23q74 75 148 159h47q20 -51 72 -164z" />
<glyph unicode="&#xf5;" horiz-adv-x="498" d="M465 298q0 -59 -21 -121t-57 -104q-71 -87 -180 -87q-49 0 -84.5 16.5t-53.5 45t-26 58.5t-8 65q0 65 26.5 129.5t74.5 111.5q33 32 77.5 51t85.5 19q166 0 166 -184zM380 327q0 107 -87 107q-49 0 -88 -43q-35 -38 -61.5 -108.5t-26.5 -137.5q0 -51 24 -82.5t67 -31.5 q62 0 100 51q30 42 51 109.5t21 135.5zM333 642l29 -13q19 -9 40 -9q28 0 50 48l32 -12q-21 -54 -43 -75.5t-51 -21.5q-26 0 -60 15l-26 11q-32 14 -42 14q-27 0 -51 -48l-31 14q44 94 99 94q16 0 54 -17z" />
<glyph unicode="&#xf6;" horiz-adv-x="498" d="M465 298q0 -59 -21 -121t-57 -104q-71 -87 -180 -87q-49 0 -84.5 16.5t-53.5 45t-26 58.5t-8 65q0 65 26.5 129.5t74.5 111.5q33 32 77.5 51t85.5 19q166 0 166 -184zM380 327q0 107 -87 107q-49 0 -88 -43q-35 -38 -61.5 -108.5t-26.5 -137.5q0 -51 24 -82.5t67 -31.5 q62 0 100 51q30 42 51 109.5t21 135.5zM297 622q0 -22 -13.5 -36t-34.5 -14q-19 0 -30.5 11t-11.5 30q0 23 14.5 37t34.5 14q19 0 30 -12t11 -30zM460 622q0 -22 -13 -36t-34 -14q-19 0 -31 11t-12 30q0 23 14.5 37t34.5 14t30.5 -11.5t10.5 -30.5z" />
<glyph unicode="&#xf7;" horiz-adv-x="605" d="M397 445q0 -21 -15 -35.5t-37 -14.5q-18 0 -30 11.5t-12 29.5q0 22 15.5 37.5t36.5 15.5q42 0 42 -44zM536 264h-449l12 61h449zM329 152q0 -22 -14.5 -37t-36.5 -15q-19 0 -30.5 11.5t-11.5 29.5q0 22 15 37.5t37 15.5q19 0 30 -11.5t11 -30.5z" />
<glyph unicode="&#xf8;" horiz-adv-x="498" d="M492 470l-52 -57q25 -46 25 -115q0 -59 -21 -121t-57 -104q-71 -87 -180 -87q-75 0 -119 39l-50 -55l-35 31l56 62q-24 44 -24 108q0 65 26.5 129.5t74.5 111.5q33 32 77.5 51t85.5 19q69 0 110 -33l48 53zM380 327q0 4 -0.5 10t-0.5 9l-246 -271q24 -44 75 -44 q62 0 100 51q30 42 51 109.5t21 135.5zM117 145q0 -12 1 -17l245 271q-22 35 -70 35q-49 0 -88 -43q-35 -38 -61.5 -108.5t-26.5 -137.5z" />
<glyph unicode="&#xf9;" horiz-adv-x="582" d="M562 62q-92 -75 -162 -75q-51 0 -51 55q0 48 30 136q-53 -78 -112 -129q-72 -63 -137 -63q-31 0 -49 16.5t-18 48.5q0 44 28 134q51 163 51 203q0 29 -44 29q-7 0 -35 -2l11 47q93 0 176 17l9 -11q-25 -73 -70 -220q-36 -118 -36 -152q0 -31 26 -31q40 0 91 52 q41 42 77 97t53 105q25 74 42 147l91 8q-41 -136 -68 -243q-28 -108 -28 -143q0 -26 21 -26q33 0 82 37zM218 696l74 37q38 -91 91 -186l-28 -15q-82 92 -137 164z" />
<glyph unicode="&#xfa;" horiz-adv-x="582" d="M562 62q-92 -75 -162 -75q-51 0 -51 55q0 48 30 136q-53 -78 -112 -129q-72 -63 -137 -63q-31 0 -49 16.5t-18 48.5q0 44 28 134q51 163 51 203q0 29 -44 29q-7 0 -35 -2l11 47q93 0 176 17l9 -11q-25 -73 -70 -220q-36 -118 -36 -152q0 -31 26 -31q40 0 91 52 q41 42 77 97t53 105q25 74 42 147l91 8q-41 -136 -68 -243q-28 -108 -28 -143q0 -26 21 -26q33 0 82 37zM421 729l75 -37q-62 -62 -177 -160l-24 15q89 124 126 182z" />
<glyph unicode="&#xfb;" horiz-adv-x="582" d="M562 62q-92 -75 -162 -75q-51 0 -51 55q0 48 30 136q-53 -78 -112 -129q-72 -63 -137 -63q-31 0 -49 16.5t-18 48.5q0 44 28 134q51 163 51 203q0 29 -44 29q-7 0 -35 -2l11 47q93 0 176 17l9 -11q-25 -73 -70 -220q-36 -118 -36 -152q0 -31 26 -31q40 0 91 52 q41 42 77 97t53 105q25 74 42 147l91 8q-41 -136 -68 -243q-28 -108 -28 -143q0 -26 21 -26q33 0 82 37zM473 542l-28 -16q-44 62 -83 110q-54 -45 -130 -112l-26 23q74 75 148 159h47q20 -51 72 -164z" />
<glyph unicode="&#xfc;" horiz-adv-x="582" d="M562 62q-92 -75 -162 -75q-51 0 -51 55q0 48 30 136q-53 -78 -112 -129q-72 -63 -137 -63q-31 0 -49 16.5t-18 48.5q0 44 28 134q51 163 51 203q0 29 -44 29q-7 0 -35 -2l11 47q93 0 176 17l9 -11q-25 -73 -70 -220q-36 -118 -36 -152q0 -31 26 -31q40 0 91 52 q41 42 77 97t53 105q25 74 42 147l91 8q-41 -136 -68 -243q-28 -108 -28 -143q0 -26 21 -26q33 0 82 37zM323 622q0 -22 -13.5 -36t-34.5 -14q-19 0 -30.5 11t-11.5 30q0 23 14.5 37t34.5 14q19 0 30 -12t11 -30zM486 622q0 -22 -13 -36t-34 -14q-19 0 -31 11t-12 30 q0 23 14.5 37t34.5 14t30.5 -11.5t10.5 -30.5z" />
<glyph unicode="&#xfd;" horiz-adv-x="567" d="M379 178q-53 -78 -112 -129q-72 -63 -137 -63q-31 0 -49 16.5t-18 48.5q0 44 28 134q51 163 51 203q0 29 -44 29q-7 0 -35 -2l11 47q93 0 176 17l9 -11q-25 -73 -70 -220q-36 -118 -36 -152q0 -31 26 -31q40 0 91 52q40 41 76.5 96.5t53.5 105.5q25 74 42 147l91 8 q-11 -37 -64 -230q-15 -53 -31 -118l-24 -97.5t-20.5 -68t-26.5 -62.5q-78 -146 -244 -146q-61 0 -96 22.5t-35 56.5q0 20 13.5 33.5t33.5 13.5q36 0 48 -37q11 -40 57 -40t89.5 35t71.5 109q11 28 24 69.5t28 92t22 71.5zM418 729l75 -37q-62 -62 -177 -160l-24 15 q89 124 126 182z" />
<glyph unicode="&#xfe;" horiz-adv-x="556" d="M168 -234q-114 0 -179 -14l-10 10q28 79 120 470q14 61 32.5 138t27 113.5t17.5 76.5t12 59.5t3 30.5q0 19 -9 25t-37 6q-12 0 -34 -2l12 48q93 0 169 16l6 -11q-28 -107 -109 -424q58 83 125 128.5t118 45.5q81 0 81 -106q0 -86 -38.5 -175t-108.5 -151t-150 -62 q-61 0 -91 16q-31 -131 -31 -160q0 -19 8.5 -25t36.5 -6q8 0 41 3zM149 90q0 -49 77 -49q52 0 100 58.5t73 129t25 120.5q0 58 -40 58q-35 0 -89.5 -43.5t-110.5 -139.5q-13 -23 -24 -65.5t-11 -68.5z" />
<glyph unicode="&#xff;" horiz-adv-x="567" d="M379 178q-53 -78 -112 -129q-72 -63 -137 -63q-31 0 -49 16.5t-18 48.5q0 44 28 134q51 163 51 203q0 29 -44 29q-7 0 -35 -2l11 47q93 0 176 17l9 -11q-25 -73 -70 -220q-36 -118 -36 -152q0 -31 26 -31q40 0 91 52q40 41 76.5 96.5t53.5 105.5q25 74 42 147l91 8 q-11 -37 -64 -230q-15 -53 -31 -118l-24 -97.5t-20.5 -68t-26.5 -62.5q-78 -146 -244 -146q-61 0 -96 22.5t-35 56.5q0 20 13.5 33.5t33.5 13.5q36 0 48 -37q11 -40 57 -40t89.5 35t71.5 109q11 28 24 69.5t28 92t22 71.5zM322 622q0 -22 -13.5 -36t-34.5 -14 q-19 0 -30.5 11t-11.5 30q0 23 14.5 37t34.5 14q19 0 30 -12t11 -30zM485 622q0 -22 -13 -36t-34 -14q-19 0 -31 11t-12 30q0 23 14.5 37t34.5 14t30.5 -11.5t10.5 -30.5z" />
<glyph unicode="&#x152;" horiz-adv-x="995" d="M897 -1q-120 2 -391 2q-18 0 -73.5 -2.5t-96.5 -2.5q-135 0 -202.5 73.5t-67.5 187.5q0 182 106.5 301t296.5 119q18 0 86.5 -2t121.5 -2q205 0 314 3q-9 -65 -18 -160h-47q1 9 1 23q0 51 -19 65q-12 9 -35.5 12t-99.5 3q-48 0 -67 -2q-18 -2 -25 -20q-11 -25 -45 -175 q-4 -18 -4 -23q0 -8 7 -11q17 -5 63 -5q60 0 83 4t37 14q17 13 32 62h44q-23 -80 -48 -221h-45q2 13 2 34q0 26 -11 34q-19 17 -105 17q-63 0 -72 -7q-7 -5 -13 -31q-39 -170 -39 -193q0 -22 17 -32t77 -10q137 0 178 24q35 22 72 105l48 -4q-29 -78 -62 -180zM484 133 q19 78 92 399q6 30 6 48q0 23 -25 34.5t-89 11.5q-141 0 -223.5 -102t-82.5 -255q0 -94 44 -157.5t139 -63.5q73 0 99.5 16.5t39.5 68.5z" />
<glyph unicode="&#x153;" horiz-adv-x="748" d="M705 95q-43 -46 -104 -77.5t-115 -31.5q-93 0 -113 83q-67 -83 -166 -83q-49 0 -84.5 16.5t-53.5 45t-26 58.5t-8 65q0 65 26.5 129.5t74.5 111.5q72 70 163 70q122 0 145 -114q87 114 195 114q106 0 106 -84q0 -52 -39 -87q-80 -72 -262 -112q-7 -29 -7 -58 q0 -41 20 -64.5t56 -23.5q73 0 163 76zM380 327q0 107 -87 107q-49 0 -88 -43q-35 -38 -61.5 -108.5t-26.5 -137.5q0 -51 24 -82.5t67 -31.5q62 0 100 51q30 42 51 109.5t21 135.5zM454 244q94 26 151.5 63t57.5 80q0 42 -48 42q-46 0 -92 -52t-69 -133z" />
<glyph unicode="&#x178;" horiz-adv-x="634" d="M406 49l-12 -51q-6 0 -56 2t-74 2q-18 0 -126 -4l12 51q15 -1 33 -1q31 0 42 13q10 13 22 59q2 9 15 63.5t24 101.5q-42 120 -116 293q-11 27 -23.5 37.5t-34.5 10.5q-16 0 -23 -1l12 51q37 -3 124 -3q101 0 139 3l-12 -51l-12 1h-19q-55 0 -55 -30q0 -16 13 -55 q7 -20 32.5 -85t39.5 -101q140 160 166 191q32 40 32 58q0 12 -8 17t-33 5q-33 0 -38 -1l12 51q37 -3 141 -3q74 0 112 3l-12 -51q-5 1 -15 1q-21 0 -37.5 -11t-41.5 -37q-102 -111 -259 -291q-14 -58 -36 -166q-8 -35 -8 -50q0 -23 43 -23q24 0 37 1zM389 788 q0 -22 -13.5 -36.5t-34.5 -14.5q-19 0 -30.5 11.5t-11.5 30.5q0 23 14.5 37t34.5 14q19 0 30 -12t11 -30zM565 788q0 -22 -13 -36.5t-34 -14.5q-19 0 -31 11.5t-12 30.5q0 23 14.5 37t34.5 14q19 0 30 -12t11 -30z" />
<glyph unicode="&#x2c6;" horiz-adv-x="277" d="M272 542l-28 -16q-44 62 -83 110q-54 -45 -130 -112l-26 23q74 75 148 159h47q20 -51 72 -164z" />
<glyph unicode="&#x2dc;" horiz-adv-x="277" d="M139 642l29 -13q19 -9 40 -9q28 0 50 48l32 -12q-21 -54 -43 -75.5t-51 -21.5q-26 0 -60 15l-26 11q-31 14 -42 14q-27 0 -51 -48l-31 14q44 94 99 94q16 0 54 -17z" />
<glyph unicode="&#x2000;" horiz-adv-x="448" />
<glyph unicode="&#x2001;" horiz-adv-x="896" />
<glyph unicode="&#x2002;" horiz-adv-x="448" />
<glyph unicode="&#x2003;" horiz-adv-x="896" />
<glyph unicode="&#x2004;" horiz-adv-x="298" />
<glyph unicode="&#x2005;" horiz-adv-x="224" />
<glyph unicode="&#x2006;" horiz-adv-x="149" />
<glyph unicode="&#x2007;" horiz-adv-x="149" />
<glyph unicode="&#x2008;" horiz-adv-x="112" />
<glyph unicode="&#x2009;" horiz-adv-x="179" />
<glyph unicode="&#x200a;" horiz-adv-x="49" />
<glyph unicode="&#x2010;" horiz-adv-x="322" d="M66 291q22 -2 113 -2q75 0 113 2l-17 -72q-29 1 -111 1q-76 0 -114 -1z" />
<glyph unicode="&#x2011;" horiz-adv-x="322" d="M66 291q22 -2 113 -2q75 0 113 2l-17 -72q-29 1 -111 1q-76 0 -114 -1z" />
<glyph unicode="&#x2012;" horiz-adv-x="322" d="M66 291q22 -2 113 -2q75 0 113 2l-17 -72q-29 1 -111 1q-76 0 -114 -1z" />
<glyph unicode="&#x2013;" horiz-adv-x="585" d="M65 288q22 -2 245 -2q206 0 244 2l-15 -66q-29 1 -241 1q-209 0 -248 -1z" />
<glyph unicode="&#x2014;" horiz-adv-x="808" d="M66 288q22 -2 342 -2q331 0 369 2l-15 -66q-29 1 -367 1q-306 0 -344 -1z" />
<glyph unicode="&#x2018;" horiz-adv-x="206" d="M264 691l8 -37q-34 -7 -49 -16q-36 -18 -36 -48q0 -20 16 -30q25 -16 25 -45q0 -23 -15.5 -39t-40.5 -16q-27 0 -45 21t-18 51q0 70 56 115q42 34 99 44z" />
<glyph unicode="&#x2019;" horiz-adv-x="206" d="M93 462l-8 37q31 7 50 16q35 17 35 48q0 20 -16 30q-25 16 -25 45q0 23 15.5 39t40.5 16q27 0 45 -21t18 -51q0 -62 -44.5 -104.5t-110.5 -54.5z" />
<glyph unicode="&#x201a;" horiz-adv-x="206" d="M-26 -108l-8 36q30 6 50 17q34 19 34 48q0 20 -15 30q-25 15 -25 44q0 23 15.5 39.5t39.5 16.5q27 0 45 -21t18 -51q0 -75 -59 -118q-42 -33 -95 -41z" />
<glyph unicode="&#x201c;" horiz-adv-x="368" d="M264 691l8 -37q-34 -7 -49 -16q-36 -18 -36 -48q0 -20 16 -30q25 -16 25 -45q0 -23 -15.5 -39t-40.5 -16q-27 0 -45 21t-18 51q0 75 59 118q35 28 96 41zM426 691l8 -37q-31 -7 -50 -16q-34 -17 -34 -48q0 -20 15 -30q25 -16 25 -45q0 -23 -15.5 -39t-40.5 -16 q-27 0 -44.5 21t-17.5 51q0 72 58 117q46 34 96 42z" />
<glyph unicode="&#x201d;" horiz-adv-x="368" d="M93 462l-8 37q31 7 50 16q35 17 35 48q0 20 -16 30q-25 16 -25 45q0 23 15.5 39t40.5 16q27 0 45 -21t18 -51q0 -74 -61 -119q-44 -31 -94 -40zM256 462l-9 37q33 7 50 16q35 17 35 48q0 20 -15 30q-25 16 -25 45q0 23 15 39t40 16q27 0 45 -21t18 -51q0 -75 -61 -120 q-42 -30 -93 -39z" />
<glyph unicode="&#x201e;" horiz-adv-x="368" d="M-26 -108l-8 36q30 6 50 17q34 19 34 48q0 15 -20 35t-20 39q0 23 15.5 39.5t39.5 16.5q27 0 45 -21t18 -51q0 -60 -44.5 -104t-109.5 -55zM137 -108l-8 36q30 6 50 17q34 19 34 48q0 15 -20 35t-20 39q0 23 15.5 39.5t39.5 16.5q27 0 45 -21t18 -51q0 -60 -44.5 -104 t-109.5 -55z" />
<glyph unicode="&#x2022;" horiz-adv-x="322" d="M166 162q-51 0 -82 29.5t-31 85.5q0 60 38 97.5t94 37.5q50 0 80.5 -31t30.5 -84q0 -62 -36 -98.5t-94 -36.5z" />
<glyph unicode="&#x2026;" horiz-adv-x="815" d="M89 -8q-20 0 -33 12t-13 34q0 25 15.5 41t39.5 16q21 0 33 -12.5t12 -34.5q0 -26 -15.5 -41t-38.5 -15zM361 -8q-20 0 -32.5 12t-12.5 34q0 25 15.5 41t39.5 16q20 0 32 -12.5t12 -34.5q0 -26 -15.5 -41t-38.5 -15zM635 -8q-20 0 -33 12t-13 34q0 25 15.5 41t39.5 16 q21 0 33 -12.5t12 -34.5q0 -26 -15.5 -41t-38.5 -15z" />
<glyph unicode="&#x202f;" horiz-adv-x="179" />
<glyph unicode="&#x2039;" horiz-adv-x="270" d="M205 81l-29 -22q-73 90 -153 177l5 22q135 91 230 168l24 -26q-29 -28 -89.5 -83.5t-79.5 -73.5q15 -27 92 -162z" />
<glyph unicode="&#x203a;" horiz-adv-x="270" d="M83 405l30 21q77 -93 152 -177l-5 -21q-117 -79 -230 -169l-24 27q27 25 85.5 79l84.5 78q-13 24 -28.5 51t-35 60t-29.5 51z" />
<glyph unicode="&#x205f;" horiz-adv-x="224" />
<glyph unicode="&#x20ac;" horiz-adv-x="664" d="M459 233h-214q3 -180 149 -180q119 0 196 112l41 -30q-59 -80 -122.5 -115t-141.5 -35q-100 0 -154.5 67t-54.5 176v5h-77l12 50h68q2 31 13 75h-73l12 49h77q39 105 118.5 171.5t194.5 67.5q80 0 120.5 -30t40.5 -76q0 -24 -15 -37.5t-37 -13.5q-44 0 -47 38 q-4 37 -25 51t-62 14q-70 0 -121.5 -52t-81.5 -133h217l-12 -49h-220q-10 -36 -13 -75h224z" />
<glyph unicode="&#x2122;" horiz-adv-x="889" d="M303 321q-36 2 -93 2t-79 -2l7 34h20q20 0 28 8q7 7 12 30q48 207 50 215q2 10 2 16q0 8 -5.5 11.5t-24.5 3.5q-33 0 -46 -10.5t-34 -53.5l-33 2q12 32 33 99q31 -2 149 -2q126 0 164 2q-9 -43 -16 -98l-32 -2q1 8 1 22q0 25 -10 33t-36 8q-36 0 -41 -5t-8 -18 q-25 -95 -51 -220q-3 -15 -3 -24q0 -17 30 -17h23zM557 321q-28 2 -72 2q-35 0 -75 -2l7 34h16q21 0 28 9q7 8 14 32q50 166 59 200q5 23 5 25q0 20 -29 20h-19l7 34q30 -2 73 -2q31 0 55 2q3 -37 6 -50q3 -18 14.5 -76.5t16.5 -95.5q16 24 41 61t43.5 64.5t26.5 40.5 q25 40 32 56q11 -1 61 -1q11 0 31.5 0.5t26.5 0.5l-7 -34q-6 1 -15 1q-18 0 -24 -9q-5 -7 -12 -34q-11 -50 -37 -201q-3 -15 -3 -28q0 -15 25 -15h21l-7 -34q-30 2 -89 2q-30 0 -68 -2l8 34h14q22 0 27 8q5 7 11 32q1 4 16 80.5t26 125.5q-30 -45 -88 -131t-80 -119h-23 q-10 67 -43 249q-9 -32 -29.5 -104t-30.5 -111q-2 -10 -2 -13q0 -17 25 -17h24z" />
<glyph unicode="&#x25fc;" horiz-adv-x="480" d="M0 480h480v-480h-480v480z" />
</font>
</defs>
</svg>
