<?xml version="1.0" standalone="no"?>
<!DOCTYPE svg PUBLIC "-//W3C//DTD SVG 1.1//EN" "http://www.w3.org/Graphics/SVG/1.1/DTD/svg11.dtd" >
<svg xmlns="http://www.w3.org/2000/svg">
<metadata></metadata>
<defs>
<font id="cassiabold" horiz-adv-x="590" >
<font-face units-per-em="1000" ascent="745" descent="-255" />
<missing-glyph horiz-adv-x="215" />
<glyph unicode="&#xfb01;" horiz-adv-x="644" d="M319 -2q-108 4 -160 4q-25 0 -79 -2t-58 -2v83q12 -1 24 -1q38 0 45 13q5 9 5 61q1 80 1 240q-30 0 -70 -2v87q43 0 56 7q14 6 19 42q8 59 29 97q65 119 239 119q83 0 125 -27.5t42 -73.5q0 -41 -24 -59.5t-56 -18.5q-69 0 -82 64q-7 35 -37 35q-39 0 -60 -31 q-34 -50 -34 -153q154 0 214.5 2.5t95.5 12.5l13 -14q-9 -86 -9 -211q0 -75 1 -116q1 -51 7 -61q8 -13 38 -13q9 0 25 1v-83q-62 4 -145 4q-25 0 -76 -2t-57 -2v83q7 -1 18 -1q25 0 34 13q6 11 8 61q1 29 1 92q0 84 -5 112q-4 21 -16.5 28.5t-50.5 7.5q-63 0 -96 -1 q-1 -22 -1 -88q0 -116 1 -151q3 -52 9 -61q8 -13 40 -13q12 0 26 1v-83z" />
<glyph unicode="&#xfb02;" horiz-adv-x="644" d="M319 -2q-108 4 -160 4q-25 0 -79 -2t-58 -2v83q12 -1 24 -1q36 0 45 13q5 11 5 61q1 80 1 238q-30 0 -70 -2v87q40 0 56 7q11 5 18 44q11 56 28 92q28 59 90 91.5t139 32.5q61 0 97 -13q62 7 100 15l12 -14q-8 -256 -8 -313q0 -170 1 -265q0 -48 8 -62q8 -12 33 -12 q19 0 28 1v-83q-112 4 -142 4q-25 0 -78 -2t-58 -2v83q11 -1 20 -1q23 0 32 14q6 10 8 60q1 44 1 102q0 305 -5 353q-3 32 -18.5 43.5t-51.5 11.5q-34 0 -59 -31q-32 -38 -34 -153q72 0 110 3v-91q-33 1 -110 1q-1 -22 -1 -88q0 -116 1 -151q3 -52 9 -61q8 -13 31 -13 q20 0 35 1v-83z" />
<glyph unicode="&#xfb03;" horiz-adv-x="958" d="M319 -2q-108 4 -160 4q-25 0 -79 -2t-58 -2v83q12 -1 24 -1q36 0 45 13q5 11 5 61q1 80 1 239q-30 0 -70 -2v86q43 0 56 7q8 3 11.5 12t6.5 32q6 40 21 77q24 60 74.5 91.5t118.5 31.5q118 0 118 -87q0 -26 -18 -39.5t-42 -13.5q-43 0 -51 37q-5 24 -25 24q-26 0 -38 -33 q-15 -40 -15 -136q85 0 110 1q33 2 42 6q16 8 20 41q8 59 29 97q65 119 239 119q83 0 125 -27.5t42 -73.5q0 -41 -24 -59.5t-56 -18.5q-69 0 -82 64q-7 35 -37 35q-39 0 -60 -31q-34 -50 -34 -153q154 0 214.5 2.5t95.5 12.5l13 -14q-9 -86 -9 -211q0 -75 1 -116 q1 -51 7 -61q8 -13 38 -13q9 0 25 1v-83q-62 4 -145 4q-25 0 -73.5 -2t-56.5 -2v83q7 -1 18 -1q22 0 31 13q6 11 8 61q1 29 1 92q0 84 -5 112q-4 21 -16.5 28.5t-50.5 7.5q-62 0 -95 -1q-1 -22 -1 -88q0 -116 1 -151q1 -48 10 -61q8 -13 38 -13q16 0 28 1v-83q-108 4 -161 4 q-24 0 -68.5 -2t-54.5 -2v83q7 -1 20 -1q23 0 33 15q7 11 7 59q0 44 0.5 132t0.5 107h-168q-1 -22 -1 -88q0 -116 1 -151q3 -50 9 -61q7 -13 38 -13q15 0 28 1v-83z" />
<glyph unicode="&#xfb04;" horiz-adv-x="959" d="M319 -2q-108 4 -160 4q-25 0 -79 -2t-58 -2v83q12 -1 24 -1q36 0 45 13q5 11 5 61q1 80 1 239q-30 0 -70 -2v86q43 0 56 7q8 3 11.5 12t6.5 32q6 40 21 77q24 60 74.5 91.5t118.5 31.5q118 0 118 -87q0 -26 -18 -39.5t-42 -13.5q-43 0 -51 37q-5 24 -25 24q-26 0 -38 -33 q-15 -40 -15 -136q85 0 110 1q33 2 42 6q15 8 20 41q8 51 28 92q28 59 90 91.5t139 32.5q61 0 97 -13q62 7 100 15l12 -14q-8 -152 -8 -313q0 -170 1 -265q0 -48 8 -62q8 -12 33 -12q19 0 28 1v-83q-112 4 -142 4q-25 0 -75 -2t-57 -2v83q10 -1 18 -1q23 0 31 14q5 10 7 60 q1 44 1 102q0 305 -5 353q-3 32 -18.5 43.5t-51.5 11.5q-34 0 -59 -31q-32 -38 -34 -153q73 0 110 3v-91q-33 1 -110 1q-1 -22 -1 -88q0 -116 1 -151q1 -45 11 -60q9 -14 40 -14q13 0 28 1v-83q-108 4 -164 4q-24 0 -68.5 -2t-54.5 -2v83q7 -1 20 -1q23 0 33 15q7 11 7 59 q0 44 0.5 132t0.5 107h-168q-1 -22 -1 -88q0 -116 1 -151q3 -50 9 -61q7 -13 38 -13q15 0 28 1v-83z" />
<glyph horiz-adv-x="0" />
<glyph horiz-adv-x="333" />
<glyph unicode=" "  horiz-adv-x="215" />
<glyph unicode="&#x09;" horiz-adv-x="215" />
<glyph unicode="&#xa0;" horiz-adv-x="215" />
<glyph unicode="!" horiz-adv-x="326" d="M224 225h-84q-6 80 -28 214t-22 160q0 41 24 65t70 24q94 0 94 -86q0 -29 -23 -166t-31 -211zM185 -7q-39 0 -64 23t-25 65q0 38 26.5 61.5t64.5 23.5q39 0 62.5 -23.5t23.5 -63.5t-24 -63t-64 -23z" />
<glyph unicode="&#x22;" horiz-adv-x="334" d="M146 662q0 -8 -6.5 -47t-15.5 -93.5t-13 -88.5h-51q-3 35 -12.5 88.5t-17 93t-7.5 46.5q0 56 65 56q58 0 58 -55zM311 662q0 -8 -6.5 -47t-15.5 -93.5t-13 -88.5h-51q-3 35 -12.5 88.5t-17 93t-7.5 46.5q0 56 65 56q58 0 58 -55z" />
<glyph unicode="#" horiz-adv-x="634" d="M208 -10h-71l27 196h-125v121h142l12 83h-129v121h146l26 179h71l-26 -179h124l26 179h71l-26 -179h119v-121h-136l-12 -83h125v-121h-142l-27 -196h-71l27 196h-124zM252 307h124l12 83h-124z" />
<glyph unicode="$" horiz-adv-x="553" d="M311 724v-85h6q84 0 129.5 -30.5t45.5 -76.5q0 -65 -66 -65q-46 0 -58 47q-8 36 -57 44v-173l49 -22q81 -36 113 -80t32 -101q0 -74 -49.5 -124.5t-144.5 -62.5v-92h-62v88q-98 1 -156 38t-58 96q0 32 18.5 50t44.5 18q49 0 62 -48q17 -65 89 -71v187l-50 24 q-68 33 -99.5 73t-31.5 101q0 65 45 113t136 62v90h62zM369 145q0 31 -12 49t-46 36v-152q58 15 58 67zM195 485q0 -23 11.5 -38.5t42.5 -32.5v140q-54 -17 -54 -69z" />
<glyph unicode="%" horiz-adv-x="878" d="M375 452q0 -109 -45.5 -168t-133.5 -59q-81 0 -126.5 53t-45.5 145q0 104 49.5 162t137.5 58q76 0 120 -49.5t44 -141.5zM266 422q0 88 -14 123.5t-51 35.5q-67 0 -67 -131q0 -95 16 -128.5t52 -33.5q35 0 49.5 29t14.5 105zM544 629h73l-281 -629h-74zM854 216 q0 -109 -45.5 -168t-133.5 -59q-81 0 -126.5 53t-45.5 145q0 104 49.5 162t137.5 58q76 0 120 -49.5t44 -141.5zM745 186q0 88 -14 123.5t-51 35.5q-67 0 -67 -131q0 -95 16 -128.5t52 -33.5q35 0 49.5 29t14.5 105z" />
<glyph unicode="&#x26;" horiz-adv-x="805" d="M508 331v85q40 -2 156 -2q58 0 126 2v-84q-7 1 -30 1q-33 0 -49 -24q-5 -8 -18 -32.5t-22 -39.5q-32 -53 -74 -99q31 -31 64 -31q28 0 72 51l65 -52q-86 -117 -194 -117q-73 0 -132 48q-74 -53 -187 -53q-114 0 -184 57.5t-70 157.5q0 81 44 127.5t120 75.5 q-30 52 -30 106q0 78 64 130t179 52q81 0 120.5 -31t39.5 -72q0 -32 -19 -50t-52 -18q-51 0 -64 43q-14 47 -53 47q-66 0 -66 -63q0 -45 62 -139q69 -104 158 -205q47 56 47 99q0 31 -43 31q-22 0 -30 -1zM407 102q-84 90 -158 207q-12 18 -21 18q-13 0 -27 -19 q-18 -24 -18 -61q0 -55 45 -108.5t115 -53.5q42 0 64 17z" />
<glyph unicode="'" horiz-adv-x="169" d="M146 662q0 -8 -6.5 -47t-15.5 -93.5t-13 -88.5h-51q-3 35 -12.5 88.5t-17 93t-7.5 46.5q0 56 65 56q58 0 58 -55z" />
<glyph unicode="(" horiz-adv-x="316" d="M311 -155l-51 -46q-238 188 -238 478q0 287 237 480l52 -44q-79 -91 -110.5 -192t-31.5 -244q0 -273 142 -432z" />
<glyph unicode=")" horiz-adv-x="316" d="M5 712l51 46q238 -188 238 -478q0 -287 -237 -480l-52 44q79 91 110.5 192t31.5 244q0 273 -142 432z" />
<glyph unicode="*" horiz-adv-x="349" d="M216 529q15 -6 53 -17q26 -7 37 -13q13 -7 13 -23q0 -18 -13.5 -33.5t-26.5 -15.5q-16 0 -36 22q-23 27 -48 45q4 -26 7 -37q1 -5 5 -17t6 -22t2 -20q0 -32 -40 -32q-41 0 -41 30q0 3 14 62q4 17 6 36q-16 -14 -47 -47q-23 -23 -37 -23q-16 0 -28.5 15.5t-12.5 32.5 q0 26 27 33q39 10 78 24q-12 5 -67 20q-22 6 -31 13.5t-9 20.5q0 15 13.5 32.5t28.5 17.5t40 -28q20 -25 45 -43q-3 22 -10 51q-10 40 -10 46q0 31 41 31q40 0 40 -31q0 -12 -10 -50q-4 -15 -10 -45q14 12 53 52q17 17 33 17t28 -16t12 -33q0 -20 -21 -27q-2 -1 -16.5 -5.5 t-32 -10t-35.5 -12.5z" />
<glyph unicode="+" horiz-adv-x="617" d="M357 69h-96v182h-181v92h181v183h96v-183h180v-92h-180v-182z" />
<glyph unicode="," horiz-adv-x="270" d="M60 -165l-28 56q23 9 57 31q31 21 31 48q0 29 -27 41q-49 23 -49 75q0 31 23.5 55.5t65.5 24.5q38 0 67.5 -27.5t29.5 -88.5q0 -74 -46.5 -128.5t-123.5 -86.5z" />
<glyph unicode="-" horiz-adv-x="322" d="M41 313q23 -2 128 -2q75 0 112 2v-101q-29 1 -111 1q-91 0 -129 -1v101z" />
<glyph unicode="." horiz-adv-x="273" d="M137 -12q-39 0 -64 23t-25 65q0 38 26.5 61.5t64.5 23.5q39 0 62.5 -23.5t23.5 -63.5t-24 -63t-64 -23z" />
<glyph unicode="/" horiz-adv-x="421" d="M393 738l-300 -853h-91l300 853h91z" />
<glyph unicode="0" d="M556 344q0 -173 -67.5 -266.5t-199.5 -93.5q-120 0 -188 83.5t-68 230.5q0 165 74 257t205 92q113 0 178.5 -78t65.5 -225zM398 295q0 151 -22 211t-79 60q-52 0 -78.5 -51.5t-26.5 -171.5q0 -160 25.5 -218t81.5 -58q53 0 76 49t23 179z" />
<glyph unicode="1" d="M498 -2q-112 4 -189 4q-22 0 -186 -4v85q14 -1 37 -1q54 0 63 15q12 11 12 59q1 67 1 132q0 116 -1 155q-1 52 -15 62q-10 6 -27 6q-20 0 -66 -10l-16 87q55 8 144 29t122 34l25 -16q-8 -66 -8 -281q0 -145 1 -198q1 -46 9 -58q8 -16 49 -16q28 0 45 1v-85z" />
<glyph unicode="2" d="M523 -2q-105 3 -252 3q-156 0 -248 -2l-11 81q194 145 263.5 232t69.5 157q0 95 -75 95q-61 0 -71 -67q-11 -62 -75 -62q-31 0 -50.5 20t-19.5 51q0 53 54.5 96.5t175.5 43.5q110 0 171 -47.5t61 -128.5q0 -34 -11.5 -66.5t-43 -77.5t-99 -100.5t-167.5 -117.5 q34 -1 113 -1q83 0 109 21q29 24 42 91l84 -8q-13 -76 -20 -213z" />
<glyph unicode="3" d="M349 340q184 -17 184 -159q0 -87 -74 -142t-203 -55q-118 0 -168 37.5t-50 85.5q0 38 21.5 55.5t51.5 17.5t45 -13t24 -41q19 -59 85 -59q50 0 78.5 24.5t28.5 85.5q0 63 -35 86.5t-110 23.5q-22 0 -40 -2v90q9 -1 29 -1q70 0 100.5 27t30.5 89q0 37 -19.5 56.5 t-55.5 19.5q-48 0 -60 -40q-9 -32 -25.5 -47t-48.5 -15q-30 0 -50.5 15.5t-20.5 47.5q0 48 51.5 84t159.5 36q115 0 170 -40t55 -112q0 -63 -42.5 -102t-111.5 -53z" />
<glyph unicode="4" d="M562 -2q-120 4 -184 4q-17 0 -173 -4v83q13 -1 29 -1q49 0 60 14q8 10 11 36q1 12 1 39q-178 0 -273 -2l-11 66q30 39 295 399h144q-2 -52 -2 -163v-194q54 0 114 3l-10 -109q-40 1 -103 1q0 -3 0.5 -18t0.5 -19q2 -28 9 -39q10 -14 51 -14q25 0 41 1v-83zM307 275l1 194 q-13 -20 -36.5 -53t-54 -75.5t-46.5 -65.5h136z" />
<glyph unicode="5" d="M227 524l-16 -114q45 18 99 18q222 0 222 -206q0 -96 -74 -165t-219 -69q-99 0 -147 36.5t-48 80.5q0 31 20.5 49t48.5 18q53 0 65 -48q15 -53 77 -53q54 0 88.5 34.5t34.5 99.5q0 124 -122 124q-74 0 -123 -35l-39 19q18 110 42 317q50 -2 164 -2q127 0 205 3l-9 -110 q-91 3 -269 3z" />
<glyph unicode="6" d="M201 351q56 56 156 56q88 0 140 -51t52 -137q0 -106 -64 -170.5t-182 -64.5q-123 0 -188.5 76t-65.5 217q0 173 86.5 271.5t224.5 98.5q77 0 121 -26t44 -69q0 -64 -68 -64q-54 0 -67 45q-11 32 -52 32q-49 0 -87 -49.5t-50 -164.5zM201 202q0 -58 24 -96.5t75 -38.5 q97 0 97 130q0 113 -99 113q-42 0 -69.5 -28.5t-27.5 -79.5z" />
<glyph unicode="7" d="M433 524h-82q-94 0 -128.5 -3.5t-45.5 -13.5q-23 -21 -39 -87l-80 5q22 142 27 205q142 -2 276 -2q141 0 195 3l19 -23q-163 -323 -257 -577q-13 -34 -27 -48t-44 -14q-25 0 -41 11.5t-16 30.5q0 23 13 53q84 204 230 460z" />
<glyph unicode="8" d="M176 309q-101 61 -101 163q0 72 62.5 123.5t171.5 51.5q99 0 153 -38.5t54 -107.5q0 -82 -107 -142q79 -44 107.5 -84t28.5 -100q0 -79 -69 -135t-191 -56q-114 0 -177 43.5t-63 119.5q0 109 131 162zM244 275q-36 -22 -54.5 -52t-18.5 -59q0 -99 118 -99q50 0 76.5 23 t26.5 58q0 42 -31.5 70.5t-116.5 58.5zM337 391q62 47 62 100q0 38 -23.5 57.5t-63.5 19.5q-38 0 -60 -19t-22 -54q0 -32 21.5 -56.5t85.5 -47.5z" />
<glyph unicode="9" d="M392 280q-54 -52 -152 -52q-86 0 -141.5 50t-55.5 135q0 105 66 169.5t181 64.5q124 0 187.5 -75.5t63.5 -217.5q0 -177 -80 -273.5t-229 -96.5q-80 0 -127 27t-47 70q0 65 68 65q53 0 67 -48q11 -32 64 -32q113 0 135 214zM392 429q0 57 -25 96t-77 39q-99 0 -99 -130 q0 -115 100 -115q45 0 73 28.5t28 81.5z" />
<glyph unicode=":" horiz-adv-x="293" d="M157 -12q-39 0 -64 23t-25 65q0 38 26.5 61.5t64.5 23.5q39 0 62.5 -23.5t23.5 -63.5t-24 -63t-64 -23zM157 283q-39 0 -64 23t-25 65q0 38 26.5 61.5t64.5 23.5q39 0 62.5 -23.5t23.5 -63.5t-24 -63t-64 -23z" />
<glyph unicode=";" horiz-adv-x="293" d="M157 283q-39 0 -64 23t-25 65q0 38 26.5 61.5t64.5 23.5q39 0 62.5 -23.5t23.5 -63.5t-24 -63t-64 -23zM80 -165l-28 56q23 9 57 31q31 21 31 48q0 29 -27 41q-49 23 -49 75q0 31 23.5 55.5t65.5 24.5q38 0 67.5 -27.5t29.5 -88.5q0 -74 -46.5 -128.5t-123.5 -86.5z" />
<glyph unicode="&#x3c;" horiz-adv-x="617" d="M498 57l-400 191v91l400 189v-102l-296 -132l296 -132v-105z" />
<glyph unicode="=" horiz-adv-x="617" d="M537 159h-457v92h457v-92zM537 343h-457v91h457v-91z" />
<glyph unicode="&#x3e;" horiz-adv-x="617" d="M120 528l399 -190v-92l-399 -189v102l295 133l-295 131v105z" />
<glyph unicode="?" horiz-adv-x="511" d="M260 237l-81 -23q-22 47 -22 80q0 45 18 75t80 72q36 25 51 47.5t15 55.5q0 60 -66 60q-24 0 -41 -17.5t-21 -52.5q-5 -53 -73 -53q-29 0 -48.5 17t-19.5 53q0 51 53.5 95.5t161.5 44.5q111 0 164 -39.5t53 -102.5q0 -60 -29 -101t-110 -80q-50 -24 -71.5 -43t-21.5 -50 q0 -16 8 -38zM221 -7q-39 0 -64 23t-25 65q0 38 26.5 61.5t64.5 23.5q39 0 62.5 -23.5t23.5 -63.5t-24 -63t-64 -23z" />
<glyph unicode="@" horiz-adv-x="835" d="M735 -50q-56 -39 -140 -64t-170 -25q-167 0 -272 100t-105 264q0 185 121.5 308t309.5 123q147 0 232 -75.5t85 -218.5q0 -119 -75 -208t-194 -89q-68 0 -68 63q0 26 4 44q-79 -107 -170 -107q-46 0 -66 27t-20 68q0 116 94 231q31 38 75.5 60t90.5 22q49 0 76 -9l12 23 l100 6q-10 -32 -51 -185q-32 -124 -32 -146q0 -21 20 -21q48 0 85 72.5t37 145.5q0 236 -234 236q-148 0 -244.5 -104.5t-96.5 -267.5q0 -137 84.5 -215t211.5 -78q143 0 265 77zM504 378q0 14 -11 21.5t-27 7.5q-39 0 -76 -56q-57 -86 -57 -158q0 -31 24 -31q21 0 53 30 t63 89q14 28 24 59q7 30 7 38z" />
<glyph unicode="A" horiz-adv-x="725" d="M269 -2q-52 4 -126 4t-143 -4v85q7 -1 16 -1q33 0 49 18.5t37 67.5q177 411 213 510h122q56 -167 208 -543q21 -53 60 -53q12 0 20 1v-84q-38 3 -164 3q-109 0 -160 -4v85q10 -1 33 -1q24 0 32.5 6.5t8.5 23.5q0 11 -27 95q-4 12 -12 14q-9 3 -109 3q-60 0 -85 -1 q-16 0 -24 -20q-28 -69 -28 -93q0 -16 9.5 -22t33.5 -6q25 0 36 1v-85zM338 512q-46 -115 -68 -173q-4 -12 -4 -15q0 -7 6 -9q5 -2 58 -2q47 0 58 1q14 1 14 13q0 4 -3 13q-50 139 -61 172z" />
<glyph unicode="B" horiz-adv-x="664" d="M442 358q95 -5 144 -48.5t49 -115.5q0 -55 -24 -95t-66 -61.5t-89.5 -31t-104.5 -9.5q-29 0 -92 2.5t-82 2.5q-2 0 -158 -4v85q12 -1 33 -1q34 0 41 13q5 11 5 61q1 80 1 196q0 47 -0.5 104.5t-0.5 63.5q0 48 -5 60q-8 12 -41 12q-21 0 -33 -1v85q156 -4 158 -4 q17 0 87 2t89 2q53 0 92.5 -6.5t75 -22.5t54.5 -47.5t19 -78.5q0 -131 -152 -163zM254 460q0 -47 9 -56q7 -7 55 -7q116 0 116 107q0 44 -32.5 66.5t-78.5 22.5q-48 0 -59 -16q-10 -14 -10 -117zM254 273q0 -104 5.5 -135t19.5 -42q19 -15 70 -15q52 0 83.5 28t31.5 74 q0 127 -141 127q-54 0 -61 -8q-8 -9 -8 -29z" />
<glyph unicode="C" horiz-adv-x="671" d="M649 105q-126 -122 -293 -122q-139 0 -229 91t-90 242q0 98 30.5 173t81.5 117t109 63t121 21q43 0 81 -9q32 -8 44 -8q27 0 27 16l68 3q9 -146 22 -220l-88 -9q-18 80 -47 111t-105 31q-32 0 -61 -12t-57 -38.5t-44.5 -78.5t-16.5 -123q0 -134 61.5 -194.5t152.5 -60.5 q93 0 178 74z" />
<glyph unicode="D" horiz-adv-x="764" d="M19 -2v85q12 -1 25 -1q39 0 46 13t8 61q1 50 1 196q0 143 -1 168q-2 50 -7 60q-7 12 -42 12q-22 0 -30 -1v85q12 0 45 -1.5t61 -2t45 -0.5q16 0 93 1.5t98 1.5q180 0 273 -75t93 -250q0 -153 -99 -252t-277 -99q-29 0 -99 1.5t-82 1.5q-19 0 -46.5 -0.5t-60 -2 t-44.5 -1.5zM255 349q0 -138 3 -188q3 -39 15 -53q21 -23 102 -23q93 0 135 61.5t42 205.5q0 117 -46.5 178t-152.5 61q-70 0 -81 -10q-14 -12 -15 -48q-2 -50 -2 -184z" />
<glyph unicode="E" horiz-adv-x="627" d="M582 -2q-104 3 -402 3q-53 0 -161 -3v85q12 -1 32 -1q33 0 41 15q6 12 6 59q1 78 1 196q0 142 -1 168q-2 50 -7 58q-8 14 -40 14q-20 0 -32 -1v85q156 -4 160 -4q306 0 372 5q2 -94 13 -173l-77 -3q-12 63 -33 75q-26 16 -101 16q-46 0 -68 -2q-20 -2 -25 -17 q-5 -16 -5 -134q0 -29 10 -35q6 -4 58 -4q55 0 73 19q12 13 18 57h75q-4 -96 -4 -131q0 -78 3 -114h-76q-4 49 -22 63q-19 14 -68 14q-55 0 -61 -6t-6 -23q0 -144 17 -170q9 -14 26 -20t58 -6q52 0 75.5 4t40.5 18q41 33 53 110l83 -4q-1 -8 -11.5 -90.5t-14.5 -122.5z" />
<glyph unicode="F" horiz-adv-x="609" d="M367 -2q-112 4 -178 4q-46 0 -170 -4v85q11 -1 29 -1q38 0 45 17q5 11 5 57q1 80 1 196q0 47 -0.5 104.5t-0.5 63.5q0 50 -5 60q-6 12 -45 12q-22 0 -29 -1v85q76 -4 179 -4q255 0 371 5q6 -139 14 -203l-82 -3q-14 80 -39 101q-24 20 -115 20q-45 0 -68 -2 q-20 -1 -22 -22q-3 -42 -3 -156q0 -19 10 -22q14 -4 35 -4q61 0 73 18q12 20 15 58h75q-3 -87 -3 -127q0 -57 3 -129h-76q0 59 -21 74q-20 14 -69 14q-28 0 -35 -6t-7 -22q0 -46 4 -106q3 -46 22 -62q18 -15 54 -16q17 0 33 1v-85z" />
<glyph unicode="G" horiz-adv-x="755" d="M661 9l-92 -7q-2 10 -6 20q-5 10 -19 10q-9 0 -28 -10q-71 -39 -165 -39q-142 0 -228 91t-86 247q0 166 98.5 267.5t252.5 101.5q63 0 113 -11q30 -6 41 -6q21 0 23 16l67 3q6 -122 21 -227l-80 -10q-15 77 -56.5 113.5t-127.5 36.5q-88 0 -137 -63t-49 -191 q0 -130 52 -196.5t127 -66.5q86 0 106 36q10 17 10 57q0 50 -9 64q-10 15 -51 15q-22 0 -35 -1v85q72 -3 176 -3q91 0 142 3v-85q-7 1 -24 1q-27 0 -35 -12t-8 -66q0 -86 7 -173z" />
<glyph unicode="H" horiz-adv-x="780" d="M338 -2q-112 4 -166 4q-19 0 -47 -0.5t-61 -2t-45 -1.5v85q13 -1 33 -1q34 0 41 13q5 11 5 61q1 80 1 196q0 47 -0.5 104.5t-0.5 63.5q0 48 -5 60q-8 12 -41 12q-20 0 -33 -1v85q12 0 45 -1.5t61 -2t47 -0.5q54 0 166 4v-85q-15 1 -37 1q-27 0 -35 -11q-7 -11 -8 -61 q-2 -46 -2 -89q0 -23 9 -26q12 -4 127 -4q108 0 121 4q8 2 8 26q0 21 -0.5 52.5t-0.5 36.5q0 50 -5 60q-7 12 -41 12q-20 0 -33 -1v85q12 0 45 -1.5t61 -2t47 -0.5q54 0 166 4v-85q-15 1 -37 1q-28 0 -34 -11q-8 -11 -9 -61q-2 -82 -2 -169q0 -123 2 -195q1 -52 9 -62 q6 -12 34 -12q22 0 37 1v-85q-112 4 -166 4q-19 0 -47 -0.5t-61 -2t-45 -1.5v85q13 -1 33 -1q34 0 41 13q5 9 5 61q0 27 0.5 68.5t0.5 54.5q0 19 -6 24q-9 5 -123 5q-122 0 -128 -5q-8 -5 -8 -24q0 -75 2 -123q1 -52 8 -62q8 -12 35 -12q22 0 37 1v-85z" />
<glyph unicode="I" horiz-adv-x="359" d="M340 -2q-112 4 -166 4q-19 0 -47.5 -0.5t-62 -2t-45.5 -1.5v85q13 -1 33 -1q34 0 41 13q5 11 5 61q1 80 1 196q0 47 -0.5 104.5t-0.5 63.5q0 48 -5 60q-8 12 -41 12q-20 0 -33 -1v85q12 0 45.5 -1.5t62 -2t47.5 -0.5q54 0 166 4v-85q-15 1 -37 1q-27 0 -35 -11 q-7 -11 -8 -61q-2 -82 -2 -166q0 -126 2 -198q1 -52 8 -62q7 -12 35 -12q22 0 37 1v-85z" />
<glyph unicode="J" horiz-adv-x="356" d="M349 591q-15 1 -32 1q-24 0 -33 -12t-10 -60q-2 -82 -2 -166q0 -53 1.5 -128t1.5 -86q0 -111 -35 -175q-33 -60 -91 -96t-129 -36q-61 0 -94.5 22t-33.5 63q0 27 18.5 45t44.5 18q23 0 36.5 -9t26.5 -32q11 -19 31 -19q22 0 35 25q16 31 23 111.5t7 294.5q0 118 -2 168 q-1 43 -9 57q-8 15 -42 15q-20 0 -33 -1v85q156 -4 160 -4q49 0 161 4v-85z" />
<glyph unicode="K" horiz-adv-x="721" d="M338 -2q-108 4 -179 4q-24 0 -79.5 -2t-60.5 -2v85q12 -1 30 -1q37 0 44 13q5 11 5 61q1 80 1 196q0 36 -0.5 98t-0.5 70q0 48 -5 60q-8 12 -44 12q-18 0 -30 -1v85q5 0 60.5 -2t79.5 -2q71 0 179 4v-85q-10 1 -33 1q-31 0 -39 -12q-5 -9 -8 -60q-2 -35 -2 -106 q0 -9 1 -13.5t6.5 -8t15.5 -3.5q34 0 77 44q65 66 84.5 94.5t19.5 44.5q0 20 -41 20q-13 0 -21 -1v85q51 -4 145 -4q82 0 146 4v-85q-7 1 -19 1q-48 0 -85 -43q-77 -86 -154 -161q156 -225 193 -265t82 -40h16v-85q-56 4 -102 4q-78 0 -114 -4q-40 46 -159 234 q-23 36 -39 55t-22.5 22.5t-15.5 3.5q-14 0 -14 -19q0 -80 2 -138q1 -52 8 -62q8 -12 39 -12q22 0 33 1v-85z" />
<glyph unicode="L" horiz-adv-x="615" d="M584 -2q-105 3 -404 3q-53 0 -161 -3v85q12 -1 33 -1q32 0 40 15q6 13 6 59q1 80 1 196q0 16 -0.5 86t-0.5 82q0 42 -8 58q-8 14 -41 14q-18 0 -30 -1v85q12 0 45.5 -1.5t62 -2t47.5 -0.5q51 0 163 4v-85q-16 1 -34 1q-33 0 -39 -12q-9 -12 -9 -63q0 -26 -0.5 -81 t-0.5 -71q0 -146 4 -193.5t15 -63.5q10 -14 28.5 -20t64.5 -6q74 0 102 17q44 27 60 116l83 -3q-14 -91 -27 -214z" />
<glyph unicode="M" horiz-adv-x="874" d="M268 -2q-108 4 -145 4q-14 0 -114 -4v85q10 -1 27 -1q27 0 38 11q10 13 14 64q24 318 24 365q0 41 -19 60q-8 10 -35 10q-15 0 -31 -1v85q81 -3 170 -3q75 0 108 3q16 -61 26 -89q30 -87 103 -294q37 92 118 306q13 37 21 77q76 -4 133 -4q21 0 141 4v-85q-13 1 -30 1 q-35 0 -44 -15q-7 -11 -7 -48q0 -86 12 -379q1 -39 9 -53q6 -15 47 -15q10 0 23 1v-85q-156 4 -185 4q-26 0 -134 -4v85q13 -1 29 -1q40 0 48 15q7 10 7 54q0 66 -11 348q-125 -300 -173 -436h-86q-38 125 -150 432q-14 -315 -14 -344q0 -42 6 -53q10 -16 44 -16q18 0 30 1 v-85z" />
<glyph unicode="N" horiz-adv-x="779" d="M285 -2q-64 4 -149 4q-21 0 -121 -4v85q15 -1 30 -1q29 0 40 11q10 8 12 68q2 151 2 345q0 35 -3 49t-14 23q-15 13 -35 14q-21 0 -32 -1v85q39 -3 151 -3q64 0 100 3q35 -56 61 -89q121 -152 262 -318q-3 211 -5 249q-2 43 -12 59q-9 15 -43 15q-21 0 -33 -1v86 q58 -4 144 -4q10 0 122 4v-86q-16 1 -26 1q-28 0 -39 -11q-11 -10 -13 -68q-2 -152 -2 -231q0 -187 7 -278l-84 -17q-93 119 -418 512q2 -208 8 -344q3 -46 11 -58q8 -15 44 -15q23 0 35 1v-85z" />
<glyph unicode="O" horiz-adv-x="765" d="M728 362q0 -176 -100.5 -277t-263.5 -101q-148 0 -237.5 87.5t-89.5 247.5q0 173 101.5 272t271.5 99q139 0 228.5 -87t89.5 -241zM552 327q0 279 -176 279q-82 0 -126.5 -65.5t-44.5 -190.5q0 -142 50 -211t136 -69q80 0 120.5 61t40.5 196z" />
<glyph unicode="P" horiz-adv-x="632" d="M346 -2q-112 4 -176 4q-19 0 -46.5 -0.5t-60 -2t-44.5 -1.5v85q12 -1 29 -1q38 0 45 14q5 11 5 60q1 80 1 196q0 47 -0.5 104.5t-0.5 63.5q0 49 -5 59q-6 13 -45 13q-17 0 -29 -1v85q117 -3 151 -3q17 0 91 1.5t93 1.5q245 0 245 -180q0 -222 -291 -222q-35 0 -53 2 q0 -83 2 -120q1 -46 14 -62q10 -12 38 -12q20 0 37 1v-85zM255 399q0 -33 10 -37q10 -5 53 -5q55 0 84.5 27.5t29.5 105.5q0 103 -114 103q-40 0 -52 -12q-8 -8 -9 -40q-2 -44 -2 -142z" />
<glyph unicode="Q" horiz-adv-x="765" d="M728 362q0 -124 -52 -213t-144 -131q34 -22 85 -51q55 -31 81 -31q32 0 60 19l39 -73q-24 -11 -91.5 -45t-74.5 -37q-115 52 -302 186q-133 10 -212.5 96.5t-79.5 236.5q0 173 101.5 272t271.5 99q139 0 228.5 -87t89.5 -241zM552 327q0 279 -176 279q-82 0 -126.5 -65.5 t-44.5 -190.5q0 -142 50 -211t136 -69q80 0 120.5 61t40.5 196z" />
<glyph unicode="R" horiz-adv-x="698" d="M339 -2q-112 4 -169 4q-19 0 -46.5 -0.5t-60 -2t-44.5 -1.5v85q12 -1 29 -1q35 0 43 15q7 13 7 59q1 60 1 196q0 47 -0.5 104.5t-0.5 63.5q0 50 -6 60q-7 12 -40 12q-21 0 -33 -1v85q12 0 45 -1.5t61.5 -2t47.5 -0.5t83.5 1t91.5 1q265 0 265 -180q0 -90 -66 -145 q-28 -22 -48 -32q-12 -6 -12 -13t6 -15q7 -13 27 -41q8 -11 23 -35t30 -46t31 -42q20 -25 37.5 -33.5t44.5 -8.5h12v-85q-26 3 -107 3q-69 0 -100 -3q-48 65 -161 265q-9 16 -28 18q-7 1 -27 1q-10 0 -15 -3q-6 -6 -6 -26q0 -53 3 -97q2 -43 12 -60q9 -14 37 -14q17 0 33 1 v-85zM254 392q0 -22 14 -24q24 -2 36 -2q69 0 104.5 26t35.5 98q0 103 -135 103q-39 0 -47 -15q-3 -5 -5 -34q-3 -66 -3 -152z" />
<glyph unicode="S" horiz-adv-x="557" d="M112 -3h-72q-2 145 -17 227l84 5q12 -73 56 -116t108 -43q117 0 117 79q0 37 -20.5 59.5t-78.5 47.5l-78 34q-85 38 -123.5 85t-38.5 121q0 78 63 134.5t180 56.5q33 0 73 -11q30 -8 35 -8q19 0 24 17h65q2 -97 18 -208l-86 -6q-12 68 -39 101.5t-91 33.5q-48 0 -77 -21 t-29 -58q0 -34 18.5 -55.5t68.5 -41.5l65 -26q106 -43 146.5 -90t40.5 -127q0 -88 -69.5 -144.5t-176.5 -56.5q-55 0 -102 18q-35 14 -41 14q-19 0 -23 -21z" />
<glyph unicode="T" horiz-adv-x="668" d="M499 -2q-152 4 -162 4q-57 0 -169 -4v85q15 -1 35 -1q36 0 42 12q8 12 8 63q1 76 1 193q0 140 -3 201q-1 24 -7 33q-6 8 -52 8t-62.5 -22.5t-33.5 -104.5l-85 6q11 79 19 206q68 -4 294 -4q257 0 319 4q2 -127 6 -206l-91 -4q-11 81 -26.5 103t-61.5 22q-44 0 -50 -7 q-7 -8 -7 -36q0 -17 -0.5 -85t-0.5 -112q0 -29 2 -189q0 -49 10 -66q10 -15 47 -15q16 0 28 1v-85z" />
<glyph unicode="U" horiz-adv-x="766" d="M758 591q-11 1 -25 1q-7 0 -11.5 -0.5t-7.5 -0.5t-6 -1.5l-4 -2t-5 -3.5t-6 -4q-12 -8 -12 -64q-1 -89 -1 -251q0 -136 -73 -209t-212 -73q-163 0 -236 65.5t-73 190.5q0 73 1.5 163.5t1.5 116.5q0 51 -9 61q-7 12 -40 12q-17 0 -27 -1v85q72 -4 166 -4q88 0 156 4v-85 q-10 1 -27 1q-39 0 -48 -12q-11 -13 -12 -64q-4 -120 -4 -238q0 -106 40 -148t128 -42t124.5 53.5t36.5 154.5q0 157 -2 223q-1 48 -13 61q-10 12 -43 12q-21 0 -30 -1v85q70 -4 164 -4q41 0 109 4v-85z" />
<glyph unicode="V" horiz-adv-x="720" d="M419 -2h-125q-65 191 -209 542q-21 52 -61 52q-19 0 -24 -1v85q38 -3 169 -3q134 0 173 3v-85q-1 0 -16 0.5t-23 0.5q-44 0 -44 -34q0 -23 31 -105q10 -28 48 -128t56 -150q56 132 94 243q39 113 39 143q0 31 -39 31q-7 0 -21.5 -0.5t-16.5 -0.5v85q40 -3 146 -3 q72 0 124 3v-85q-4 1 -17 1q-25 0 -38.5 -18t-34.5 -67q-198 -477 -211 -509z" />
<glyph unicode="W" horiz-adv-x="1009" d="M344 -2h-123q-31 150 -138 539q-9 31 -23.5 43t-40.5 12q-12 0 -19 -1v85q38 -3 175 -3q110 0 149 3v-85q-10 1 -41 1q-33 0 -33 -32q0 -34 23 -126q13 -55 31.5 -125t22.5 -85q125 345 152 450h123q45 -154 140 -451q40 154 61 241q17 78 17 93q0 20 -10 27.5t-32 8.5 q-8 0 -18 -0.5t-11 -0.5v84q41 -3 144 -3q64 0 116 3v-84q-7 1 -19 1q-25 0 -36 -11t-20 -41q-104 -343 -157 -543h-124q-85 282 -141 449q-16 -44 -79 -211.5t-89 -237.5z" />
<glyph unicode="X" horiz-adv-x="783" d="M352 271q-64 -79 -86 -110q-24 -34 -24 -53q0 -23 50 -25q8 0 22.5 0.5t15.5 0.5v-86q-40 3 -179 3q-83 0 -137 -3v86q2 0 6.5 -0.5t6.5 -0.5q23 0 42.5 9.5t30 20t29.5 33.5q2 2 17.5 21t51.5 64t95 119q-8 11 -159 209q-25 33 -73 33q-12 0 -22 -1v85q55 -4 155 -4 q143 0 194 4v-85q-6 1 -28 1q-24 0 -24 -21q0 -11 15 -33q38 -56 73 -101q50 68 56 78q29 44 29 57q0 20 -28 20q-8 0 -18 -0.5t-11 -0.5v85q39 -3 162 -3q82 0 120 3v-85q-7 1 -19 1q-46 0 -82 -42q-18 -21 -149 -189q75 -105 150 -200q42 -53 59 -65.5t53 -12.5q15 0 23 1 v-86q-55 3 -156 3q-183 0 -240 -3v86q1 0 17.5 -0.5t24.5 -0.5q46 0 46 26q0 12 -31 57q-23 32 -78 105z" />
<glyph unicode="Y" horiz-adv-x="686" d="M505 83v-85q-152 4 -164 4q-60 0 -168 -4v85q16 -1 39 -1q30 0 38 12q7 11 10 62q1 32 1 123q-60 97 -178 268q-30 45 -68 45q-10 0 -15 -1v85q39 -3 152 -3q140 0 178 3v-85q-1 0 -8.5 0.5t-15.5 0.5q-25 0 -35 -4.5t-10 -18.5q0 -20 27 -59q13 -18 38.5 -58t44.5 -68 q42 65 80 131q17 31 17 50q0 14 -8.5 20t-37.5 7h-8t-3.5 -0.5t-1 -0.5h-1.5v85q39 -3 141 -3q99 0 137 3v-85q-5 1 -15 1q-41 0 -77 -47q-52 -66 -178 -264q0 -55 1 -125q0 -50 6 -61q7 -13 49 -13q21 0 33 1z" />
<glyph unicode="Z" horiz-adv-x="646" d="M611 -2q-69 4 -287 4q-183 0 -293 -2l-14 26q213 336 351 565q-7 0 -56 -1t-73 -2q-70 -3 -96 -23.5t-46 -92.5l-73 11q8 32 40 194q71 -4 242 -4q183 0 293 2l11 -27q-254 -378 -364 -561q62 -4 136 -4q40 0 58 1t42.5 7.5t36 20.5t24 39t21.5 65l76 -6 q-20 -117 -29 -212z" />
<glyph unicode="[" horiz-adv-x="312" d="M297 -169q-30 2 -80 2q-120 0 -158 -2q3 68 3 446q0 377 -3 445q48 -2 158 -2q50 0 82 2v-71q-74 2 -105 2q-2 -33 -2 -377q0 -343 2 -376q65 0 103 1v-70z" />
<glyph unicode="\" horiz-adv-x="421" d="M302 -115l-300 853h91l300 -853h-91z" />
<glyph unicode="]" horiz-adv-x="312" d="M15 722q30 -2 80 -2q120 0 158 2q-3 -67 -3 -446q0 -378 3 -445q-48 2 -158 2q-50 0 -82 -2v71q74 -2 105 -2q2 33 2 377q0 343 -2 376q-65 0 -103 -1v70z" />
<glyph unicode="^" horiz-adv-x="617" d="M515 326h-101l-106 239l-104 -240h-102l160 342h96z" />
<glyph unicode="_" horiz-adv-x="481" d="M483 -125h-485v54h485v-54z" />
<glyph unicode="`" horiz-adv-x="280" d="M40 699l102 47q41 -83 98 -189l-41 -25q-100 100 -159 167z" />
<glyph unicode="a" horiz-adv-x="564" d="M326 56q-66 -69 -146 -69q-70 0 -110.5 43.5t-40.5 100.5q0 95 90 124q33 11 172 33q23 4 31 12t8 25q0 48 -18 65.5t-54 17.5q-29 0 -40 -18q-9 -13 -13 -34q-7 -38 -64 -38q-68 0 -68 60q0 50 58 83.5t164 33.5q93 0 136.5 -31t43.5 -107q0 -21 -3 -86t-3 -108 q0 -48 9.5 -62.5t28.5 -14.5q15 0 32 5l12 -81q-54 -21 -119 -21q-47 0 -72 14.5t-34 52.5zM326 187q0 19 -20 19q-37 0 -81 -14q-42 -13 -42 -51q0 -20 13 -33.5t38 -13.5q41 0 62 18q30 26 30 75z" />
<glyph unicode="b" horiz-adv-x="602" d="M158 19l-36 -48l-63 17q10 91 10 374q0 180 -2 227q-1 35 -12 44.5t-36 9.5q-17 0 -27 -1v84q150 0 220 20l12 -14q-6 -57 -7 -316q40 40 89 62t89 22q89 0 131.5 -61.5t42.5 -171.5q0 -123 -70 -200t-193 -77q-90 0 -148 29zM215 217q0 -54 8 -86q15 -56 86 -56 q53 0 77.5 32t24.5 119q0 96 -21.5 130.5t-67.5 34.5q-34 0 -64.5 -24.5t-36.5 -65.5q-6 -34 -6 -84z" />
<glyph unicode="c" horiz-adv-x="504" d="M488 95q-98 -110 -230 -110q-104 0 -164.5 64.5t-60.5 170.5q0 122 76 199t201 77q73 0 115 -30t42 -74q0 -66 -64 -66q-52 0 -66 45q-11 37 -48 37q-42 0 -73 -37.5t-31 -120.5q0 -79 34 -116.5t81 -37.5q37 0 64.5 13t66.5 43z" />
<glyph unicode="d" horiz-adv-x="626" d="M609 2q-151 0 -217 -13l-11 10q2 16 7 69q-61 -81 -158 -81q-85 0 -141 55.5t-56 170.5q0 78 23 136t61 89.5t79 46t85 14.5q67 0 107 -21q0 44 -3 107q-2 36 -10.5 47t-37.5 11q-18 0 -26 -1v84q151 0 220 20l12 -13q-8 -57 -9 -356q0 -147 2 -212q1 -54 9.5 -68 t34.5 -14q13 0 29 2v-83zM388 262q0 85 -17 111q-21 33 -76 33q-102 0 -102 -177q0 -140 88 -140q54 0 83 36q24 31 24 137z" />
<glyph unicode="e" horiz-adv-x="521" d="M507 100q-55 -57 -111 -86t-130 -29q-108 0 -170.5 64.5t-62.5 171.5q0 117 74 196t192 79q95 0 145.5 -53t50.5 -145q0 -29 -9.5 -41t-32.5 -14q-101 -6 -269 -8q-1 -8 -1 -19q0 -17 4.5 -34.5t16 -38t38.5 -33.5t65 -13q65 0 142 62zM189 325q0 -11 15 -12q12 -1 45 -1 q77 0 91 15q7 9 7 25q0 30 -18 44.5t-45 14.5q-71 0 -91 -63q-4 -11 -4 -23z" />
<glyph unicode="f" horiz-adv-x="359" d="M333 -2q-108 4 -174 4q-25 0 -79 -2t-58 -2v83q12 -1 24 -1q36 0 45 13q5 11 5 61q1 80 1 238q-30 0 -70 -2v87q43 0 56 7q14 6 18 44q5 50 24 93q56 123 207 123q63 0 98 -23.5t35 -67.5q0 -30 -18.5 -44t-44.5 -14q-48 0 -62 46q-8 23 -34 23t-41 -31q-19 -35 -21 -153 q72 0 110 3v-91q-33 1 -110 1q-1 -22 -1 -88q0 -116 1 -151q3 -52 9 -61q8 -13 42 -13q23 0 38 1v-83z" />
<glyph unicode="g" horiz-adv-x="554" d="M117 -26q-48 11 -71.5 38t-23.5 61q0 81 96 124q-26 17 -42.5 48.5t-16.5 67.5q0 81 58 131.5t174 50.5q85 0 136 -37q8 38 31 60t58 22q62 0 62 -49q0 -46 -43 -46q-5 0 -16 2t-17 2q-16 0 -16 -26q0 -9 6 -35q7 -30 7 -52q0 -84 -57 -132t-174 -48q-28 0 -60 5 q-12 2 -20 2q-7 0 -18 -4q-24 -8 -24 -35q0 -16 13 -24.5t52 -8.5q23 0 86 1t79 1q99 0 136 -33.5t37 -94.5q0 -103 -87.5 -161t-228.5 -58q-104 0 -161.5 33.5t-57.5 86.5q0 37 22.5 61.5t80.5 46.5zM400 -83q0 26 -20 37t-79 11q-30 0 -58 -2q-47 -3 -67 -17 q-27 -19 -27 -43q0 -29 33.5 -45.5t90.5 -16.5q127 0 127 76zM352 326q0 83 -69 83q-35 0 -53.5 -23t-18.5 -58q0 -84 72 -84q34 0 51.5 22t17.5 60z" />
<glyph unicode="h" horiz-adv-x="623" d="M297 -2q-112 4 -133 4q-19 0 -46.5 -0.5t-59.5 -2t-44 -1.5v83q13 -1 23 -1q35 0 44 14q5 8 7 60q1 44 1 102q0 286 -2 333q-1 35 -12 44.5t-36 9.5q-17 0 -27 -1v84q152 0 222 20l10 -14q-6 -46 -7 -316q102 79 167 79q101 0 127 -89q11 -41 11 -152v-100q0 -53 6 -62 q9 -12 37 -12q17 0 27 1v-83q-112 4 -138 4q-18 0 -44.5 -0.5t-57 -2t-42.5 -1.5v83q9 -1 24 -1q23 0 31 15q12 24 12 104q0 76 -4 113t-19 51q-17 17 -46 17q-41 0 -72 -32q-21 -23 -21 -102q0 -51 1 -92q1 -52 7 -62q7 -12 31 -12q14 0 23 1v-83z" />
<glyph unicode="i" horiz-adv-x="326" d="M311 -2q-62 4 -145 4q-19 0 -46 -0.5t-58 -2t-43 -1.5v83q13 -1 24 -1q34 0 43 13q5 9 7 61q1 29 1 93q0 88 -5 122q-3 25 -48 25q-10 0 -23 -1v84q156 0 222 18l9 -14q-9 -86 -9 -211q0 -75 1 -116q1 -51 7 -61q8 -13 38 -13q9 0 25 1v-83zM238 639q0 -39 -23.5 -60 t-61.5 -21t-61.5 21t-23.5 59q0 39 23 60.5t64 21.5q39 0 61 -22t22 -59z" />
<glyph unicode="j" horiz-adv-x="310" d="M239 481q-9 -90 -9 -221q0 -60 0.5 -129t0.5 -110q0 -102 -34 -158q-30 -50 -81 -82.5t-114 -32.5q-56 0 -88.5 21.5t-32.5 57.5q0 31 17.5 47.5t47.5 16.5q44 0 58 -47q4 -15 20 -15q14 0 26.5 12t18.5 35q15 52 15 295q0 164 -5 198q-3 25 -48 25q-10 0 -23 -1v84 q154 0 220 18zM228 639q0 -39 -23.5 -60t-61.5 -21t-61.5 21t-23.5 59q0 39 23 60.5t64 21.5q39 0 61 -22t22 -59z" />
<glyph unicode="k" horiz-adv-x="613" d="M306 -2q-120 4 -152 4q-25 0 -81 -2t-59 -2v83q7 -1 24 -1q36 0 44 15q6 13 6 59q1 80 1 208q0 154 -2 218q-1 41 -11.5 52t-34.5 11q-19 0 -29 -1v84q153 0 223 20l9 -12q-7 -52 -7 -417q0 -21 2 -26q5 -12 20 -12q25 0 60 34q52 49 52 71q0 19 -27 19q-13 0 -35 -1v81 q66 -4 146 -4q57 0 129 4v-81q-10 1 -32 1q-41 0 -86 -51q-24 -27 -68 -71q90 -126 132 -167q34 -34 67 -34q10 0 16 1v-83q-36 3 -71 3q-11 0 -50 -1.5t-60 -1.5q-34 28 -115 149q-33 49 -45 61t-22 12q-14 0 -14 -21q0 -32 1 -45q4 -55 8 -62q7 -12 37 -12q16 0 24 1v-83z " />
<glyph unicode="l" horiz-adv-x="321" d="M306 -2q-112 4 -142 4q-19 0 -46 -0.5t-58.5 -2t-43.5 -1.5v83q9 -1 25 -1q31 0 40 14q5 8 7 60q1 44 1 102q0 286 -2 333q-1 35 -12 44.5t-36 9.5q-17 0 -27 -1v84q150 0 220 20l12 -14q-8 -256 -8 -313q0 -170 1 -265q0 -48 8 -62q7 -12 33 -12q19 0 28 1v-83z" />
<glyph unicode="m" horiz-adv-x="918" d="M299 -2q-112 4 -130 4q-19 0 -46.5 -0.5t-59.5 -2t-44 -1.5v83q13 -1 23 -1q35 0 44 14q5 8 7 60q1 44 1 102q0 96 -6 115q-9 23 -48 23q-14 0 -22 -1v84q156 0 217 17l11 -12q-2 -22 -5 -68q99 81 163 81q49 0 78.5 -19.5t43.5 -65.5q97 85 176 85q97 0 123 -89 q12 -40 12 -152v-100q0 -53 5 -62q9 -12 38 -12q17 0 26 1v-83q-108 4 -137 4q-17 0 -137 -4v83q7 -1 16 -1q24 0 33 15q11 19 11 104q0 77 -3.5 112t-17.5 51q-15 18 -44 18q-37 0 -67 -31q-21 -22 -21 -105v-90q0 -53 5 -62q9 -12 35 -12q13 0 23 1v-83q-112 4 -131 4 q-24 0 -81 -2t-61 -2v83q9 -1 21 -1q23 0 31 15q12 22 12 104q0 79 -3.5 113t-17.5 50q-15 18 -43 18q-38 0 -68 -31q-21 -23 -21 -102q0 -52 1 -93q1 -52 7 -62q8 -12 31 -12q11 0 20 1v-83z" />
<glyph unicode="n" horiz-adv-x="628" d="M302 -2q-112 4 -133 4q-19 0 -46.5 -0.5t-59.5 -2t-44 -1.5v83q13 -1 23 -1q35 0 44 14q5 8 7 60q1 44 1 102q0 96 -6 115q-9 23 -48 23q-14 0 -22 -1v84q156 0 217 17l11 -12q-1 -8 -2.5 -30t-2.5 -37q103 80 168 80q101 0 127 -89q11 -41 11 -152v-100q0 -53 6 -62 q9 -12 37 -12q17 0 27 1v-83q-112 4 -138 4q-18 0 -44.5 -0.5t-57 -2t-42.5 -1.5v83q9 -1 24 -1q23 0 31 15q12 24 12 104q0 76 -4 113t-19 51q-17 17 -46 17q-41 0 -72 -32q-21 -23 -21 -102q0 -51 1 -92q1 -52 7 -62q8 -12 31 -12q14 0 23 1v-83z" />
<glyph unicode="o" horiz-adv-x="579" d="M546 259q0 -123 -72 -198t-195 -75q-113 0 -179.5 68.5t-66.5 172.5q0 118 75 193.5t200 75.5q107 0 172.5 -66t65.5 -171zM395 225q0 184 -104 184q-103 0 -103 -152q0 -186 110 -186q50 0 73.5 36t23.5 118z" />
<glyph unicode="p" horiz-adv-x="622" d="M320 -242q-140 4 -151 4q-22 0 -82.5 -2t-74.5 -2v83q11 -1 22 -1q32 0 42 13q7 9 9 57q2 70 2 252q0 135 -1 167q-1 44 -11 54q-11 11 -39 11q-15 0 -24 -1v84q160 0 218 17l10 -12q-4 -43 -6 -70q35 39 84 63.5t96 24.5q83 0 129 -58.5t46 -172.5q0 -132 -72.5 -205.5 t-180.5 -73.5q-61 0 -102 21q0 -56 1 -98q1 -48 8 -58q9 -14 43 -15q18 0 34 1v-83zM232 205q0 -48 11 -83q8 -24 31.5 -37t51.5 -13q58 0 81.5 36t23.5 121q0 83 -19.5 122.5t-68.5 39.5q-57 0 -90 -48q-21 -31 -21 -138z" />
<glyph unicode="q" horiz-adv-x="613" d="M599 -242q-9 0 -54 2t-80 2q-25 0 -94 -2t-71 -2v83q16 -1 36 -1q28 1 39 14q9 10 10 56q1 67 1 155q-42 -47 -77 -62.5t-84 -15.5q-81 0 -136.5 55t-55.5 167q0 138 69 214t192 76q95 0 158 -33l33 53l60 -16q-12 -88 -12 -354q0 -71 2 -237q2 -45 8 -58q7 -14 33 -14 q14 0 23 1v-83zM388 256q0 82 -13 109q-18 40 -77 40q-105 0 -105 -180q0 -137 90 -137q55 0 85 44q20 29 20 124z" />
<glyph unicode="r" horiz-adv-x="458" d="M334 -2q-63 4 -166 4q-19 0 -46.5 -0.5t-59 -2t-43.5 -1.5v83q12 -1 23 -1q36 0 44 14q7 12 7 53q0 18 0.5 56t0.5 53q0 84 -5 113q-4 25 -49 25q-10 0 -22 -1v84q156 0 217 17l11 -12q-2 -21 -5 -69q65 82 136 82q34 0 54.5 -16.5t20.5 -46.5q0 -34 -18 -53t-45 -19 q-20 0 -48 15q-11 6 -30 6q-13 0 -29.5 -10.5t-26.5 -29.5q-15 -26 -15 -103q0 -59 1 -85q1 -51 8 -61q8 -13 43 -13q26 0 42 1v-82z" />
<glyph unicode="s" horiz-adv-x="492" d="M333 291q71 -30 98.5 -63t27.5 -85q0 -71 -57 -114.5t-171 -43.5q-93 0 -149 32.5t-56 84.5q0 33 20.5 52t49.5 19q53 0 67 -49q17 -56 77 -56q63 0 63 38q0 18 -9 28.5t-32 20.5l-87 37q-63 27 -90.5 58.5t-27.5 85.5q0 66 56 113t174 47q75 0 117 -27.5t42 -67.5 q0 -31 -18.5 -47.5t-46.5 -16.5q-48 0 -64 48q-9 27 -62 27q-24 0 -38 -11t-14 -25q0 -10 3 -17.5t16 -17.5t37 -20z" />
<glyph unicode="t" horiz-adv-x="349" d="M345 17q-56 -26 -146 -26q-86 0 -111 56q-14 32 -14 100q0 80 3 245q-28 0 -70 -2v84q62 5 86 26q26 25 51 117h81q-1 -27 -1 -137q72 0 110 3v-91q-28 1 -111 1q-1 -67 -1 -157q0 -65 2 -92q4 -58 47 -58q28 0 60 9z" />
<glyph unicode="u" horiz-adv-x="624" d="M616 2q-146 0 -212 -13l-12 11q1 6 5 66q-31 -41 -72.5 -60.5t-79.5 -19.5q-29 0 -50 3t-45.5 13.5t-40 28.5t-25.5 51t-10 78q0 3 1.5 67t1.5 96q0 44 -8 57q-8 14 -36 14q-12 0 -28 -1v84q164 0 219 17l12 -13q-16 -107 -16 -249q0 -72 14 -101q8 -16 26.5 -24.5 t35.5 -8.5q63 0 85 39q16 30 16 110q0 51 -1 76q-1 46 -8 57q-8 14 -39 14q-10 0 -26 -1v84q165 0 220 17l12 -13q-14 -93 -14 -265q0 -83 7 -110q7 -23 36 -23q14 0 32 2v-83z" />
<glyph unicode="v" horiz-adv-x="584" d="M351 -2h-122q-36 94 -151 348q-17 38 -28 47.5t-32 9.5q-11 0 -18 -1v80q45 -3 152 -3q104 0 152 4v-81q-11 1 -38 1q-35 0 -35 -24q0 -21 27 -84q52 -122 66 -157q7 17 32 77.5t33 82.5q23 62 23 80q0 25 -37 25q-20 0 -33 -1v81q63 -4 130 -4q69 0 112 4v-81 q-6 1 -21 1q-19 0 -30.5 -10.5t-26.5 -44.5q-133 -291 -155 -350z" />
<glyph unicode="w" horiz-adv-x="800" d="M306 -2h-118q-28 89 -114 336q-15 42 -25 55.5t-31 13.5q-9 0 -18 -1v80q37 -3 151 -3q73 0 147 4v-81q-9 1 -22 1q-33 0 -44.5 -6t-11.5 -23q0 -16 8 -42q13 -42 51 -157q63 192 91 305h116q15 -54 49.5 -159.5t46.5 -144.5q5 18 19.5 67.5t19.5 69.5q10 38 10 58 q0 17 -9.5 24.5t-36.5 7.5q-16 0 -25 -1v81q52 -4 116 -4q60 0 124 4v-81q-7 1 -16 1q-24 0 -35.5 -18.5t-37.5 -89.5q-60 -167 -102 -297h-118q-19 62 -50 157.5t-40 125.5q-16 -48 -46 -136t-49 -147z" />
<glyph unicode="x" horiz-adv-x="625" d="M264 -2q-72 3 -159 3q-26 0 -98 -3v83q6 -1 19 -1q24 0 44.5 13t58.5 54l84 91l-93 104q-34 38 -49 49.5t-33 11.5q-3 0 -11 -0.5t-10 -0.5v81q108 -4 162 -4q86 0 154 4v-81q-5 1 -19 1q-21 0 -21 -17q0 -15 34 -50l20 -21l16 19q35 42 35 54q0 15 -21 15q-11 0 -17 -1 v81q60 -4 105 -4q87 0 129 4v-81q-5 1 -23 1t-40 -15t-64 -58l-67 -69l104 -115q36 -40 54 -53t40 -13q3 0 10 0.5t9 0.5v-82q-66 2 -160 2q-65 0 -170 -3v82q9 -1 24 -1q11 0 17.5 6.5t6.5 13.5q0 4 -1 8t-2.5 7t-5.5 8t-7 8.5t-11.5 12t-13.5 14.5l-24 26l-34 -39 q-25 -28 -25 -46t25 -18q19 0 28 1v-83z" />
<glyph unicode="y" horiz-adv-x="584" d="M252 -11q-20 44 -75.5 157.5t-95.5 199.5q-16 36 -30 46.5t-33 10.5q-11 0 -18 -1v81q60 -4 152 -4q104 0 152 4v-81q-11 1 -37 1q-32 0 -32 -24q0 -15 31 -84q11 -24 35 -75.5t31 -67.5q5 13 17.5 44.5t22.5 57.5t17 44q22 59 22 81q0 24 -36 24q-20 0 -33 -1v81 q63 -4 130 -4q69 0 112 4v-81q-6 1 -22 1q-18 0 -29.5 -11t-26.5 -45q-16 -36 -60 -138t-77 -174t-69 -145q-72 -145 -189 -145q-45 0 -66 19t-21 44q0 29 15.5 47t43.5 18q11 0 30 -6.5t28 -6.5q36 0 60 34q28 41 51 95z" />
<glyph unicode="z" horiz-adv-x="520" d="M471 -1q-87 2 -246 2q-30 0 -78.5 -0.5t-86 -1t-39.5 -0.5l-12 24q183 253 269 385q-75 0 -107.5 -6.5t-48.5 -21.5q-25 -23 -43 -83l-55 8q17 55 34 182q65 -3 202 -3q154 0 221 3l10 -27q-113 -166 -264 -380q33 -3 55 -3q53 0 78 4.5t48 19.5q29 18 48 81l53 -9 q-21 -77 -38 -174z" />
<glyph unicode="{" horiz-adv-x="340" d="M6 242v67q60 3 76 25t16 99v121q0 176 229 176v-70q-52 0 -75.5 -23.5t-23.5 -99.5v-113q0 -66 -24.5 -100t-80.5 -48q56 -12 81 -42.5t25 -97.5v-127q0 -71 20.5 -93t77.5 -22v-71q-123 0 -175 38t-52 126v142q0 65 -18.5 88.5t-75.5 24.5z" />
<glyph unicode="|" horiz-adv-x="268" d="M191 732v-923h-114v923h114z" />
<glyph unicode="}" horiz-adv-x="340" d="M334 311v-67q-60 -3 -76 -25t-16 -99v-121q0 -176 -229 -176v70q52 0 75.5 23.5t23.5 99.5v113q0 67 24.5 100.5t80.5 47.5q-56 12 -81 42.5t-25 97.5v127q0 71 -20.5 93t-77.5 22v71q123 0 175 -38t52 -126v-142q0 -65 18.5 -88.5t75.5 -24.5z" />
<glyph unicode="~" horiz-adv-x="608" d="M111 171l-62 72q77 91 154 91q26 0 48.5 -7.5t75.5 -36.5q50 -27 76 -27q24 0 45.5 14.5t50.5 52.5l60 -70q-73 -92 -151 -92q-44 0 -99 30q-73 39 -101 39q-52 0 -97 -66z" />
<glyph unicode="&#xa1;" horiz-adv-x="326" d="M102 247h84q6 -80 28 -214t22 -160q0 -41 -24 -65t-70 -24q-94 0 -94 86q0 29 23 166t31 211zM141 479q39 0 64 -23t25 -65q0 -38 -26.5 -61.5t-64.5 -23.5q-39 0 -62.5 23.5t-23.5 63.5t24 63t64 23z" />
<glyph unicode="&#xa2;" horiz-adv-x="512" d="M318 571v-79q71 -1 113 -30t42 -72q0 -35 -19.5 -50t-44.5 -15q-49 0 -63 44q-8 28 -28 36v-313q22 1 44 10t35.5 18t40.5 30l55 -51q-80 -90 -175 -104v-92h-61v88q-95 4 -147 66t-52 164q0 104 52.5 175.5t146.5 89.5v85h61zM187 251q0 -121 70 -150v297 q-70 -35 -70 -147z" />
<glyph unicode="&#xa3;" horiz-adv-x="626" d="M561 -2q-144 3 -278 3q-207 0 -259 -2l7 87q50 13 89 43q49 37 49 125h-102v87h102q0 16 -0.5 40.5t-0.5 42.5q0 105 70.5 164t190.5 59q50 0 85 -11t51 -30t22 -36.5t6 -37.5q0 -34 -21 -49t-49 -15q-55 0 -61 40q-5 31 -18.5 44t-36.5 13q-44 0 -68.5 -29.5 t-26.5 -100.5q-2 -54 -2 -94h152v-87h-154q-17 -102 -108 -147h104q133 0 162 14q17 8 26.5 26t15.5 62l80 -4q-7 -36 -27 -207z" />
<glyph unicode="&#xa4;" horiz-adv-x="609" d="M491 42l-64 65q-51 -36 -122 -36q-72 0 -122 36l-64 -66l-73 74l66 66q-36 52 -36 123q0 68 36 124l-66 66l73 73l64 -65q52 36 122 36q69 0 122 -36l64 65l72 -73l-65 -66q36 -43 36 -124q0 -74 -36 -123l65 -66zM430 304q0 57 -35.5 95.5t-89.5 38.5t-90 -38t-36 -94 q0 -59 35.5 -97.5t90.5 -38.5q54 0 89.5 38.5t35.5 95.5z" />
<glyph unicode="&#xa5;" horiz-adv-x="686" d="M268 161h-170v76h171v12l-31 47h-140v76h88q-11 15 -39.5 55.5t-48.5 68.5q-31 45 -68 45q-10 0 -15 -1v85q39 -3 152 -3q130 0 168 3v-85q-1 0 -8.5 0.5t-15.5 0.5q-25 0 -35 -4.5t-10 -18.5q0 -17 29 -59q24 -35 74 -105q6 11 30 49t38 61q20 36 20 50t-8.5 20t-37.5 7 h-8t-3.5 -0.5t-1 -0.5h-1.5v85q39 -3 136 -3q99 0 137 3v-85q-5 1 -15 1q-25 0 -41 -11t-36 -36q-48 -63 -88 -122h93v-76h-145l-29 -45v-14h169v-76h-169q0 -1 1 -3v-2q2 -54 6 -61q7 -13 49 -13q21 0 33 1v-85q-152 4 -159 4q-50 0 -158 -4v85q16 -1 39 -1q32 0 39 12 q8 12 9 62v5z" />
<glyph unicode="&#xa6;" horiz-adv-x="268" d="M191 732v-393h-114v393h114zM191 202v-393h-114v393h114z" />
<glyph unicode="&#xa7;" horiz-adv-x="552" d="M366 208q0 24 -22.5 55.5t-85.5 87.5q-42 36 -48 40q-5 4 -13 4q-10 0 -21 -9q-27 -21 -27 -51q0 -32 19.5 -57.5t86.5 -89.5q33 -31 48 -40q8 -5 18 -5t19 7q26 21 26 58zM383 81q39 -38 51 -67.5t12 -63.5q0 -67 -60 -116t-159 -49q-81 0 -130.5 30t-49.5 79 q0 28 19.5 49.5t55.5 21.5q31 0 45.5 -14.5t26.5 -51.5q10 -33 49 -33q29 0 46.5 14.5t17.5 42.5q0 32 -26.5 62t-112.5 103q-84 71 -114 115t-30 91q0 98 114 157q-45 46 -45 114q0 72 63 119t156 47q76 0 121 -27.5t45 -77.5q0 -29 -19.5 -50.5t-53.5 -21.5q-65 0 -70 60 q-3 36 -38 36q-30 0 -49 -16.5t-19 -49.5q0 -26 22 -51.5t91 -80.5q94 -75 124 -122.5t30 -93.5q0 -97 -113 -155z" />
<glyph unicode="&#xa8;" horiz-adv-x="277" d="M44 564q-27 0 -44 17t-17 45q0 27 17 44.5t46 17.5q28 0 45 -17.5t17 -44.5t-17.5 -44.5t-46.5 -17.5zM231 564q-27 0 -44 17t-17 45q0 27 17 44.5t46 17.5q28 0 45 -17.5t17 -44.5t-17.5 -44.5t-46.5 -17.5z" />
<glyph unicode="&#xa9;" horiz-adv-x="849" d="M54 352q0 156 106 262t263 106q159 0 265.5 -105.5t106.5 -262.5q0 -156 -106 -261t-265 -105t-264.5 105t-105.5 261zM110 353q0 -136 89 -227t225 -91t225.5 91t89.5 227t-90 227.5t-226 91.5q-134 0 -223.5 -91.5t-89.5 -227.5zM604 210q-82 -76 -188 -76 q-89 0 -146.5 57t-57.5 151q0 117 64.5 175t149.5 58q30 0 52 -6q22 -5 30 -5q17 0 17 12l46 2q9 -124 14 -153l-54 -5q-12 51 -31.5 73.5t-67.5 22.5q-42 0 -76 -34.5t-34 -115.5q0 -80 39 -116.5t91 -36.5q59 0 114 44z" />
<glyph unicode="&#xaa;" horiz-adv-x="439" d="M257 345q-49 -53 -110 -53q-53 0 -84 33t-31 77q0 71 68 95q23 8 131 26q18 3 23.5 7.5t5.5 17.5q0 37 -13.5 49.5t-42.5 12.5q-20 0 -28 -12q-7 -10 -10 -26q-6 -29 -49 -29q-52 0 -52 46q0 38 44.5 64t124.5 26q70 0 104 -24t34 -82q0 -16 -2.5 -64.5t-2.5 -81.5 q0 -37 7.5 -48t21.5 -11t24 3l9 -62q-41 -16 -92 -16q-35 0 -54.5 11t-25.5 41zM257 445q0 15 -15 15q-28 0 -61 -11q-32 -10 -32 -39q0 -36 39 -36q30 0 47 14q22 19 22 57z" />
<glyph unicode="&#xab;" horiz-adv-x="498" d="M274 83l-36 -30q-142 128 -201 177v33q150 121 202 168l31 -24q-38 -57 -118 -159q103 -138 122 -165zM459 83l-36 -30q-143 128 -201 177v33q150 121 202 168l31 -24q-38 -57 -118 -159q103 -138 122 -165z" />
<glyph unicode="&#xac;" horiz-adv-x="617" d="M523 69h-96v182h-361v92h457v-274z" />
<glyph unicode="&#xad;" horiz-adv-x="322" d="M41 313q23 -2 128 -2q75 0 112 2v-101q-29 1 -111 1q-91 0 -129 -1v101z" />
<glyph unicode="&#xae;" horiz-adv-x="849" d="M54 352q0 156 106 262t263 106q159 0 265.5 -105.5t106.5 -262.5q0 -156 -106 -261t-265 -105t-264.5 105t-105.5 261zM110 353q0 -136 89 -227t225 -91t225.5 91t89.5 227t-90 227.5t-226 91.5q-134 0 -223.5 -91.5t-89.5 -227.5zM430 146q-48 3 -86 3q-46 0 -118 -3v55 l9 -1h11q20 0 25 10q4 7 4 37q1 50 1 123q0 29 -0.5 65.5t-0.5 40.5q0 27 -5 35q-6 10 -23 10q-9 0 -20 -1v54q12 0 50.5 -1t51.5 -1q12 0 46 0.5t51 0.5q96 0 137 -26.5t41 -83.5q0 -63 -55 -94q-3 -2 -9.5 -6t-11.5 -6.5l-7 -3.5q-8 -3 -8 -12q0 -4 7 -18q29 -51 65 -97 q20 -26 55 -26h6v-54q-22 2 -61 2q-53 0 -77 -2q-29 44 -90 158q-9 16 -19 19q-4 1 -12 1q-4 0 -7 -2q-4 -3 -4 -17q0 -34 1 -54q1 -35 5 -43q5 -8 23 -8q3 0 13.5 0.5t11.5 0.5v-55zM376 401q0 -10 7 -12q6 -2 21 -2q20 0 32.5 1.5t27 8t22 21t7.5 38.5q0 59 -77 59 q-30 0 -36 -9q-3 -8 -3 -23q-1 -32 -1 -82z" />
<glyph unicode="&#xaf;" horiz-adv-x="277" d="M3 562v79h271v-79h-271z" />
<glyph unicode="&#xb0;" horiz-adv-x="310" d="M290 585q0 -60 -38.5 -97t-97.5 -37q-58 0 -96 36.5t-38 96.5t39.5 96.5t98.5 36.5q58 0 95 -36t37 -96zM233 584q0 40 -21.5 62.5t-55.5 22.5q-32 0 -54.5 -24t-22.5 -63q0 -37 22.5 -59.5t55.5 -22.5q34 0 55 23t21 61z" />
<glyph unicode="&#xb1;" horiz-adv-x="617" d="M357 193h-96v174h-181v91h181v176h96v-176h180v-91h-180v-174zM537 45h-457v92h457v-92z" />
<glyph unicode="&#xb2;" horiz-adv-x="399" d="M352 459q-92 2 -168 2q-105 0 -167 -2l-7 54q129 92 175 145t46 93q0 54 -48 54q-38 0 -48 -45q-8 -33 -51 -33q-21 0 -33.5 13t-12.5 36q0 37 36 64t118 27q74 0 115 -30t41 -81q0 -47 -43 -97.5t-172 -124.5q22 -1 75 -1q55 0 73 14q20 14 29 57l56 -5q-4 -21 -14 -140 z" />
<glyph unicode="&#xb3;" horiz-adv-x="399" d="M238 673q122 -11 122 -100q0 -54 -50.5 -89t-137.5 -35q-79 0 -113 27t-34 59q0 25 14 37.5t35 12.5q35 0 48 -36q13 -37 56 -37q67 0 67 59q0 36 -22.5 49t-72.5 13q-12 0 -25 -1v68q9 -1 23 -1q43 0 61.5 12.5t18.5 46.5q0 47 -46 47q-31 0 -40 -26q-5 -19 -16.5 -27 t-33.5 -8q-19 0 -32 11.5t-13 30.5q0 31 34 56t105 25q77 0 115.5 -25.5t38.5 -70.5q0 -40 -28 -64.5t-74 -33.5z" />
<glyph unicode="&#xb4;" horiz-adv-x="280" d="M138 746l102 -47q-59 -67 -159 -167l-41 25q57 106 98 189z" />
<glyph unicode="&#xb5;" horiz-adv-x="619" d="M226 -209h-154v532q0 44 -8 57q-8 14 -36 14q-12 0 -28 -1v84q164 0 219 17l12 -13q-16 -107 -16 -249q0 -72 14 -101q8 -16 26.5 -24.5t35.5 -8.5q63 0 85 39q16 30 16 110q0 51 -1 76q-1 46 -8 57q-8 14 -39 14q-10 0 -26 -1v84q165 0 220 17l12 -13q-14 -83 -15 -222 q0 -52 4 -132q2 -41 35 -41q15 0 32 5l12 -81q-54 -21 -119 -21q-93 0 -107 77q-54 -74 -127 -74q-28 0 -50 11q2 -105 11 -212z" />
<glyph unicode="&#xb6;" horiz-adv-x="611" d="M491 283q0 -14 2 -73t2 -104q0 -105 -31 -183q-25 -65 -81.5 -105.5t-133.5 -40.5q-80 0 -115.5 29.5t-35.5 63.5q0 29 17 46t50 17q15 0 28 -7.5t18.5 -14.5t13.5 -20.5t8 -14.5q11 -16 38 -16q25 0 49.5 19.5t33.5 47.5q15 46 15 247q-21 -9 -63 -9q-258 0 -258 247 q0 69 22 118.5t56 77t89.5 43t107 20t123.5 4.5q52 0 120 3v-86q-48 0 -62.5 -14t-14.5 -60q0 -10 0.5 -40.5t1 -90t0.5 -104.5zM259 415q0 -72 9 -109t23.5 -47.5t43.5 -10.5q27 0 31 16q3 15 3 43q0 155 -5 237q-3 43 -30 43q-42 0 -56 -34q-19 -47 -19 -138z" />
<glyph unicode="&#xb7;" horiz-adv-x="273" d="M137 172q-39 0 -64 23t-25 65q0 38 26.5 61.5t64.5 23.5q39 0 62.5 -23.5t23.5 -63.5t-24 -63t-64 -23z" />
<glyph unicode="&#xb8;" horiz-adv-x="277" d="M36 -262v57q51 0 78 11t27 41q0 39 -60 39l-10 21q1 3 18.5 40.5t24.5 54.5h63q-4 -9 -25 -61q89 -6 89 -78q0 -46 -34 -75.5t-77 -39.5t-94 -10z" />
<glyph unicode="&#xb9;" horiz-adv-x="399" d="M334 459q-5 0 -51 1t-76 1q-28 0 -71 -1t-54 -1v60q10 -1 29 -1q28 0 37 11q8 9 9 35q1 36 1 89q0 61 -1 81q-2 33 -10 39q-7 4 -18 4q-14 0 -44 -6l-11 59q36 5 94.5 18.5t81.5 21.5l19 -11q-5 -45 -5 -176q0 -85 1 -119q0 -26 6 -36t31 -10q24 0 32 1v-60z" />
<glyph unicode="&#xba;" horiz-adv-x="438" d="M414 499q0 -93 -54.5 -150.5t-147.5 -57.5q-86 0 -136.5 52.5t-50.5 131.5q0 89 57 146.5t151 57.5q81 0 131 -50t50 -130zM294 473q0 145 -74 145q-73 0 -73 -121q0 -146 78 -146q36 0 52.5 29.5t16.5 92.5z" />
<glyph unicode="&#xbb;" horiz-adv-x="498" d="M224 401l36 30q142 -128 201 -177v-33q-150 -121 -202 -168l-31 24q38 57 118 159q-103 138 -122 165zM39 401l36 30q143 -128 201 -177v-33q-150 -121 -202 -168l-31 24q38 57 118 159q-103 137 -122 165z" />
<glyph unicode="&#xbc;" horiz-adv-x="878" d="M537 629h73l-281 -629h-74zM324 235q-5 0 -51 1t-76 1q-28 0 -71 -1t-54 -1v60q10 -1 29 -1q28 0 37 11q8 9 9 35q1 36 1 89q0 61 -1 81q-2 33 -10 39q-7 4 -18 4q-14 0 -44 -6l-11 59q36 5 94.5 18.5t81.5 21.5l19 -11q-5 -45 -5 -176q0 -85 1 -119q0 -26 6 -36t31 -10 q24 0 32 1v-60zM813 -1q-9 0 -58.5 1t-65.5 1q-15 0 -59 -1t-57 -1v60q9 -1 25 -1q26 0 35 9q8 8 8 29v10q-119 0 -183 -1l-7 42q46 57 197 253h97q-1 -33 -1 -103v-124q22 0 76 2l-7 -69q-27 1 -69 1v-12q0 -17 7 -28q7 -9 34 -9q17 0 28 1v-60zM642 173v124 q-9 -13 -24.5 -34t-35.5 -48.5t-31 -41.5h91z" />
<glyph unicode="&#xbd;" horiz-adv-x="878" d="M526 629h73l-281 -629h-74zM312 235q-5 0 -51 1t-76 1q-28 0 -71 -1t-54 -1v60q10 -1 29 -1q28 0 37 11q8 9 9 35q1 36 1 89q0 61 -1 81q-2 33 -10 39q-7 4 -18 4q-14 0 -44 -6l-11 59q36 5 94.5 18.5t81.5 21.5l19 -11q-5 -45 -5 -176q0 -85 1 -119q0 -26 6 -36t31 -10 q24 0 32 1v-60zM824 -1q-92 2 -168 2q-105 0 -167 -2l-7 54q129 92 175 145t46 93q0 54 -48 54q-38 0 -48 -45q-7 -33 -51 -33q-21 0 -33.5 13t-12.5 36q0 37 36 64t118 27q74 0 115 -30t41 -81q0 -47 -43 -97.5t-172 -124.5q22 -1 75 -1q55 0 73 14q20 14 29 57l56 -5 q-4 -21 -14 -140z" />
<glyph unicode="&#xbe;" horiz-adv-x="878" d="M570 629h73l-281 -629h-74zM839 -1q-9 0 -58.5 1t-65.5 1q-15 0 -59 -1t-57 -1v60q9 -1 25 -1q26 0 35 9q8 8 8 29v10q-119 0 -183 -1l-7 42q46 57 197 253h97q-1 -33 -1 -103v-124q22 0 76 2l-7 -69q-27 1 -69 1v-12q0 -17 7 -28q7 -9 34 -9q17 0 28 1v-60zM668 173v124 q-9 -13 -24.5 -34t-35.5 -48.5t-31 -41.5h91zM260 449q122 -11 122 -100q0 -54 -50.5 -89t-137.5 -35q-79 0 -113 27t-34 59q0 25 14 37.5t35 12.5q35 0 48 -36q13 -37 56 -37q67 0 67 59q0 36 -22.5 49t-72.5 13q-12 0 -25 -1v68q9 -1 23 -1q43 0 61.5 12.5t18.5 46.5 q0 47 -46 47q-31 0 -40 -26q-5 -19 -16.5 -27t-33.5 -8q-19 0 -32 11.5t-13 30.5q0 31 34 56t105 25q77 0 115.5 -25.5t38.5 -70.5q0 -40 -28 -64.5t-74 -33.5z" />
<glyph unicode="&#xbf;" horiz-adv-x="511" d="M251 234l81 23q22 -47 22 -80q0 -45 -18 -75t-80 -72q-36 -25 -51 -47.5t-15 -55.5q0 -60 66 -60q24 0 41 17.5t21 52.5q5 53 73 53q29 0 48.5 -17t19.5 -53q0 -51 -53.5 -95.5t-161.5 -44.5q-111 0 -164 39.5t-53 102.5q0 60 29 101t110 80q50 24 71.5 43t21.5 50 q0 16 -8 38zM290 478q39 0 64 -23t25 -65q0 -38 -26.5 -61.5t-64.5 -23.5q-39 0 -62.5 23.5t-23.5 63.5t24 63t64 23z" />
<glyph unicode="&#xc0;" horiz-adv-x="725" d="M269 -2q-52 4 -126 4t-143 -4v85q7 -1 16 -1q33 0 49 18.5t37 67.5q177 411 213 510h122q56 -167 208 -543q21 -53 60 -53q12 0 20 1v-84q-38 3 -164 3q-109 0 -160 -4v85q10 -1 33 -1q24 0 32.5 6.5t8.5 23.5q0 11 -27 95q-4 12 -12 14q-9 3 -109 3q-60 0 -85 -1 q-16 0 -24 -20q-28 -69 -28 -93q0 -16 9.5 -22t33.5 -6q25 0 36 1v-85zM338 512q-46 -115 -68 -173q-4 -12 -4 -15q0 -7 6 -9q5 -2 58 -2q47 0 58 1q14 1 14 13q0 4 -3 13q-50 139 -61 172zM217 847l89 70q28 -33 159 -171l-34 -34q-150 91 -214 135z" />
<glyph unicode="&#xc1;" horiz-adv-x="725" d="M269 -2q-52 4 -126 4t-143 -4v85q7 -1 16 -1q33 0 49 18.5t37 67.5q177 411 213 510h122q56 -167 208 -543q21 -53 60 -53q12 0 20 1v-84q-38 3 -164 3q-109 0 -160 -4v85q10 -1 33 -1q24 0 32.5 6.5t8.5 23.5q0 11 -27 95q-4 12 -12 14q-9 3 -109 3q-60 0 -85 -1 q-16 0 -24 -20q-28 -69 -28 -93q0 -16 9.5 -22t33.5 -6q25 0 36 1v-85zM338 512q-46 -115 -68 -173q-4 -12 -4 -15q0 -7 6 -9q5 -2 58 -2q47 0 58 1q14 1 14 13q0 4 -3 13q-50 139 -61 172zM431 917l89 -70q-64 -44 -214 -135l-34 34q131 138 159 171z" />
<glyph unicode="&#xc2;" horiz-adv-x="725" d="M269 -2q-52 4 -126 4t-143 -4v85q7 -1 16 -1q33 0 49 18.5t37 67.5q177 411 213 510h122q56 -167 208 -543q21 -53 60 -53q12 0 20 1v-84q-38 3 -164 3q-109 0 -160 -4v85q10 -1 33 -1q24 0 32.5 6.5t8.5 23.5q0 11 -27 95q-4 12 -12 14q-9 3 -109 3q-60 0 -85 -1 q-16 0 -24 -20q-28 -69 -28 -93q0 -16 9.5 -22t33.5 -6q25 0 36 1v-85zM338 512q-46 -115 -68 -173q-4 -12 -4 -15q0 -7 6 -9q5 -2 58 -2q47 0 58 1q14 1 14 13q0 4 -3 13q-50 139 -61 172zM549 741l-37 -34q-25 18 -75.5 53t-68.5 48q-9 -6 -65.5 -45.5t-78.5 -55.5l-33 34 q33 33 135 149h96q80 -97 127 -149z" />
<glyph unicode="&#xc3;" horiz-adv-x="725" d="M269 -2q-52 4 -126 4t-143 -4v85q7 -1 16 -1q33 0 49 18.5t37 67.5q177 411 213 510h122q56 -167 208 -543q21 -53 60 -53q12 0 20 1v-84q-38 3 -164 3q-109 0 -160 -4v85q10 -1 33 -1q24 0 32.5 6.5t8.5 23.5q0 11 -27 95q-4 12 -12 14q-9 3 -109 3q-60 0 -85 -1 q-16 0 -24 -20q-28 -69 -28 -93q0 -16 9.5 -22t33.5 -6q25 0 36 1v-85zM338 512q-46 -115 -68 -173q-4 -12 -4 -15q0 -7 6 -9q5 -2 58 -2q47 0 58 1q14 1 14 13q0 4 -3 13q-50 139 -61 172zM365 835l33 -12q23 -9 43 -9q29 0 46 48l52 -11q-14 -60 -37 -89t-62 -29 q-28 0 -64 14l-30 11q-35 14 -51 14q-14 0 -24.5 -9t-22.5 -34l-49 19q39 104 105 104q20 0 61 -17z" />
<glyph unicode="&#xc4;" horiz-adv-x="725" d="M269 -2q-52 4 -126 4t-143 -4v85q7 -1 16 -1q33 0 49 18.5t37 67.5q177 411 213 510h122q56 -167 208 -543q21 -53 60 -53q12 0 20 1v-84q-38 3 -164 3q-109 0 -160 -4v85q10 -1 33 -1q24 0 32.5 6.5t8.5 23.5q0 11 -27 95q-4 12 -12 14q-9 3 -109 3q-60 0 -85 -1 q-16 0 -24 -20q-28 -69 -28 -93q0 -16 9.5 -22t33.5 -6q25 0 36 1v-85zM338 512q-46 -115 -68 -173q-4 -12 -4 -15q0 -7 6 -9q5 -2 58 -2q47 0 58 1q14 1 14 13q0 4 -3 13q-50 139 -61 172zM272 734q-27 0 -44 17t-17 45q0 27 17 44.5t46 17.5q28 0 45 -17.5t17 -44.5 t-17.5 -44.5t-46.5 -17.5zM469 734q-27 0 -44 17t-17 45q0 27 17 44.5t46 17.5q28 0 45 -17.5t17 -44.5t-17.5 -44.5t-46.5 -17.5z" />
<glyph unicode="&#xc5;" horiz-adv-x="725" d="M269 -2q-52 4 -126 4t-143 -4v85q7 -1 16 -1q33 0 49 18.5t37 67.5q177 411 213 510h122q56 -167 208 -543q21 -53 60 -53q12 0 20 1v-84q-38 3 -164 3q-109 0 -160 -4v85q10 -1 33 -1q24 0 32.5 6.5t8.5 23.5q0 11 -27 95q-4 12 -12 14q-9 3 -109 3q-60 0 -85 -1 q-16 0 -24 -20q-28 -69 -28 -93q0 -16 9.5 -22t33.5 -6q25 0 36 1v-85zM338 512q-46 -115 -68 -173q-4 -12 -4 -15q0 -7 6 -9q5 -2 58 -2q47 0 58 1q14 1 14 13q0 4 -3 13q-50 139 -61 172zM375 908q45 0 72 -26.5t27 -68.5q0 -43 -28.5 -70.5t-71.5 -27.5t-72 26.5 t-29 68.5t29.5 70t72.5 28zM374 866q-21 0 -35.5 -14.5t-14.5 -39.5q0 -23 13.5 -38.5t36.5 -15.5q21 0 35.5 15t14.5 39q0 25 -14.5 39.5t-35.5 14.5z" />
<glyph unicode="&#xc6;" horiz-adv-x="1030" d="M312 -2q-52 4 -156 4q-92 0 -156 -4v85q1 0 13 -0.5t15 -0.5q52 0 100 85q76 134 186 317q31 52 31 78q0 30 -52 30q-12 0 -36 -2v86q111 -3 297 -3q350 0 400 3q5 -110 13 -172l-77 -3q-9 60 -35 76q-25 15 -90 15q-59 0 -80 -2q-18 -1 -23 -17q-4 -12 -4 -140 q0 -26 11 -30q9 -3 55 -3q60 0 76 20q13 17 17 56h75q-3 -75 -3 -126q0 -71 2 -119h-76q-4 51 -23 64q-20 13 -70 13q-47 0 -56 -5q-8 -5 -8 -21q0 -149 15 -170q10 -15 26.5 -22t57.5 -7q55 0 78.5 2.5t37.5 13.5q31 25 55 116l83 -4q-7 -48 -26 -212q-67 2 -442 2 q-9 0 -123 -3v85q7 0 19.5 -0.5t15.5 -0.5q35 0 42 12q7 13 7 55v52q0 31 -12 37q-12 5 -102 5q-54 0 -81 -1q-20 -1 -33 -23t-32 -59q-18 -36 -18 -50q0 -26 44 -28q7 0 24 0.5t18 0.5v-85zM348 343q0 -7 6 -9q7 -2 62 -2q54 0 65 1q14 1 18 8q5 7 5 35q0 155 -1 180 t-12 25q-8 0 -23 -24q-25 -39 -103 -175q-17 -31 -17 -39z" />
<glyph unicode="&#xc7;" horiz-adv-x="671" d="M239 -272v60q54 0 83 11t29 42q0 19 -16.5 30t-47.5 11l-11 22l38 81q-123 14 -200 103t-77 228q0 98 30.5 173t81.5 117t109 63t121 21q43 0 81 -9q32 -8 44 -8q27 0 27 16l68 3q10 -163 21 -225l-88 -9q-9 42 -17.5 65t-24.5 44t-42 29.5t-67 8.5q-32 0 -61 -12 t-57 -38.5t-44.5 -78.5t-16.5 -123q0 -134 61.5 -194.5t152.5 -60.5q93 0 178 74l55 -67q-116 -113 -269 -121l-18 -45q95 -6 95 -81q0 -48 -36 -78.5t-82 -41t-100 -10.5z" />
<glyph unicode="&#xc8;" horiz-adv-x="627" d="M582 -2q-104 3 -402 3q-53 0 -161 -3v85q12 -1 32 -1q33 0 41 15q6 12 6 59q1 78 1 196q0 142 -1 168q-2 50 -7 58q-8 14 -40 14q-20 0 -32 -1v85q156 -4 160 -4q306 0 372 5q2 -94 13 -173l-77 -3q-12 63 -33 75q-26 16 -101 16q-46 0 -68 -2q-20 -2 -25 -17 q-5 -16 -5 -134q0 -29 10 -35q6 -4 58 -4q55 0 73 19q12 13 18 57h75q-4 -96 -4 -131q0 -78 3 -114h-76q-4 49 -22 63q-19 14 -68 14q-55 0 -61 -6t-6 -23q0 -144 17 -170q9 -14 26 -20t58 -6q52 0 75.5 4t40.5 18q41 33 53 110l83 -4q-1 -8 -11.5 -90.5t-14.5 -122.5z M144 847l89 70q28 -33 159 -171l-34 -34q-150 91 -214 135z" />
<glyph unicode="&#xc9;" horiz-adv-x="627" d="M582 -2q-104 3 -402 3q-53 0 -161 -3v85q12 -1 32 -1q33 0 41 15q6 12 6 59q1 78 1 196q0 142 -1 168q-2 50 -7 58q-8 14 -40 14q-20 0 -32 -1v85q156 -4 160 -4q306 0 372 5q2 -94 13 -173l-77 -3q-12 63 -33 75q-26 16 -101 16q-46 0 -68 -2q-20 -2 -25 -17 q-5 -16 -5 -134q0 -29 10 -35q6 -4 58 -4q55 0 73 19q12 13 18 57h75q-4 -96 -4 -131q0 -78 3 -114h-76q-4 49 -22 63q-19 14 -68 14q-55 0 -61 -6t-6 -23q0 -144 17 -170q9 -14 26 -20t58 -6q52 0 75.5 4t40.5 18q41 33 53 110l83 -4q-1 -8 -11.5 -90.5t-14.5 -122.5z M385 917l89 -70q-64 -44 -214 -135l-34 34q131 138 159 171z" />
<glyph unicode="&#xca;" horiz-adv-x="627" d="M582 -2q-104 3 -402 3q-53 0 -161 -3v85q12 -1 32 -1q33 0 41 15q6 12 6 59q1 78 1 196q0 142 -1 168q-2 50 -7 58q-8 14 -40 14q-20 0 -32 -1v85q156 -4 160 -4q306 0 372 5q2 -94 13 -173l-77 -3q-12 63 -33 75q-26 16 -101 16q-46 0 -68 -2q-20 -2 -25 -17 q-5 -16 -5 -134q0 -29 10 -35q6 -4 58 -4q55 0 73 19q12 13 18 57h75q-4 -96 -4 -131q0 -78 3 -114h-76q-4 49 -22 63q-19 14 -68 14q-55 0 -61 -6t-6 -23q0 -144 17 -170q9 -14 26 -20t58 -6q52 0 75.5 4t40.5 18q41 33 53 110l83 -4q-1 -8 -11.5 -90.5t-14.5 -122.5z M488 741l-37 -34q-25 18 -75.5 53t-68.5 48q-9 -6 -65.5 -45.5t-78.5 -55.5l-33 34q33 33 135 149h96q80 -97 127 -149z" />
<glyph unicode="&#xcb;" horiz-adv-x="627" d="M582 -2q-104 3 -402 3q-53 0 -161 -3v85q12 -1 32 -1q33 0 41 15q6 12 6 59q1 78 1 196q0 142 -1 168q-2 50 -7 58q-8 14 -40 14q-20 0 -32 -1v85q156 -4 160 -4q306 0 372 5q2 -94 13 -173l-77 -3q-12 63 -33 75q-26 16 -101 16q-46 0 -68 -2q-20 -2 -25 -17 q-5 -16 -5 -134q0 -29 10 -35q6 -4 58 -4q55 0 73 19q12 13 18 57h75q-4 -96 -4 -131q0 -78 3 -114h-76q-4 49 -22 63q-19 14 -68 14q-55 0 -61 -6t-6 -23q0 -144 17 -170q9 -14 26 -20t58 -6q52 0 75.5 4t40.5 18q41 33 53 110l83 -4q-1 -8 -11.5 -90.5t-14.5 -122.5z M209 734q-27 0 -44 17t-17 45q0 27 17 44.5t46 17.5q28 0 45 -17.5t17 -44.5t-17.5 -44.5t-46.5 -17.5zM406 734q-27 0 -44 17t-17 45q0 27 17 44.5t46 17.5q28 0 45 -17.5t17 -44.5t-17.5 -44.5t-46.5 -17.5z" />
<glyph unicode="&#xcc;" horiz-adv-x="359" d="M340 -2q-112 4 -166 4q-19 0 -47.5 -0.5t-62 -2t-45.5 -1.5v85q13 -1 33 -1q34 0 41 13q5 11 5 61q1 80 1 196q0 47 -0.5 104.5t-0.5 63.5q0 48 -5 60q-8 12 -41 12q-20 0 -33 -1v85q12 0 45.5 -1.5t62 -2t47.5 -0.5q54 0 166 4v-85q-15 1 -37 1q-27 0 -35 -11 q-7 -11 -8 -61q-2 -82 -2 -166q0 -126 2 -198q1 -52 8 -62q7 -12 35 -12q22 0 37 1v-85zM28 847l89 70q28 -33 159 -171l-34 -34q-150 91 -214 135z" />
<glyph unicode="&#xcd;" horiz-adv-x="359" d="M340 -2q-112 4 -166 4q-19 0 -47.5 -0.5t-62 -2t-45.5 -1.5v85q13 -1 33 -1q34 0 41 13q5 11 5 61q1 80 1 196q0 47 -0.5 104.5t-0.5 63.5q0 48 -5 60q-8 12 -41 12q-20 0 -33 -1v85q12 0 45.5 -1.5t62 -2t47.5 -0.5q54 0 166 4v-85q-15 1 -37 1q-27 0 -35 -11 q-7 -11 -8 -61q-2 -82 -2 -166q0 -126 2 -198q1 -52 8 -62q7 -12 35 -12q22 0 37 1v-85zM248 917l89 -70q-64 -44 -214 -135l-34 34q131 138 159 171z" />
<glyph unicode="&#xce;" horiz-adv-x="359" d="M340 -2q-112 4 -166 4q-19 0 -47.5 -0.5t-62 -2t-45.5 -1.5v85q13 -1 33 -1q34 0 41 13q5 11 5 61q1 80 1 196q0 47 -0.5 104.5t-0.5 63.5q0 48 -5 60q-8 12 -41 12q-20 0 -33 -1v85q12 0 45.5 -1.5t62 -2t47.5 -0.5q54 0 166 4v-85q-15 1 -37 1q-27 0 -35 -11 q-7 -11 -8 -61q-2 -82 -2 -166q0 -126 2 -198q1 -52 8 -62q7 -12 35 -12q22 0 37 1v-85zM356 741l-37 -34q-25 18 -75.5 53t-68.5 48q-9 -6 -65.5 -45.5t-78.5 -55.5l-33 34q33 33 135 149h96q80 -97 127 -149z" />
<glyph unicode="&#xcf;" horiz-adv-x="359" d="M340 -2q-112 4 -166 4q-19 0 -47.5 -0.5t-62 -2t-45.5 -1.5v85q13 -1 33 -1q34 0 41 13q5 11 5 61q1 80 1 196q0 47 -0.5 104.5t-0.5 63.5q0 48 -5 60q-8 12 -41 12q-20 0 -33 -1v85q12 0 45.5 -1.5t62 -2t47.5 -0.5q54 0 166 4v-85q-15 1 -37 1q-27 0 -35 -11 q-7 -11 -8 -61q-2 -82 -2 -166q0 -126 2 -198q1 -52 8 -62q7 -12 35 -12q22 0 37 1v-85zM77 734q-27 0 -44 17t-17 45q0 27 17 44.5t46 17.5q28 0 45 -17.5t17 -44.5t-17.5 -44.5t-46.5 -17.5zM274 734q-27 0 -44 17t-17 45q0 27 17 44.5t46 17.5q28 0 45 -17.5t17 -44.5 t-17.5 -44.5t-46.5 -17.5z" />
<glyph unicode="&#xd0;" horiz-adv-x="764" d="M14 402q34 -2 85 -2q0 101 -1 120q-2 50 -7 60q-7 12 -42 12q-22 0 -30 -1v85q12 0 45 -1.5t61 -2t45 -0.5q16 0 93 1.5t98 1.5q180 0 273 -75t93 -250q0 -153 -99 -252t-277 -99q-29 0 -99 1.5t-82 1.5q-19 0 -46.5 -0.5t-60 -2t-44.5 -1.5v85q12 -1 25 -1q39 0 46 13 t8 61q1 39 1 154q-15 0 -44 -0.5t-41 -0.5v93zM257 534q-2 -38 -2 -134q92 0 150 2v-93q-46 1 -150 1q0 -113 3 -154q3 -39 15 -53q19 -21 102 -21q100 0 138.5 62t38.5 208q0 117 -46.5 178.5t-152.5 61.5q-70 0 -81 -10q-14 -12 -15 -48z" />
<glyph unicode="&#xd1;" horiz-adv-x="779" d="M285 -2q-64 4 -149 4q-21 0 -121 -4v85q15 -1 30 -1q29 0 40 11q10 8 12 68q2 151 2 345q0 35 -3 49t-14 23q-15 13 -35 14q-21 0 -32 -1v85q39 -3 151 -3q64 0 100 3q35 -56 61 -89q121 -152 262 -318q-3 211 -5 249q-2 43 -12 59q-9 15 -43 15q-21 0 -33 -1v86 q58 -4 144 -4q10 0 122 4v-86q-16 1 -26 1q-28 0 -39 -11q-11 -10 -13 -68q-2 -152 -2 -231q0 -187 7 -278l-84 -17q-93 119 -418 512q2 -208 8 -344q3 -46 11 -58q8 -15 44 -15q23 0 35 1v-85zM392 835l33 -12q23 -9 43 -9q29 0 46 48l52 -11q-14 -60 -37 -89t-62 -29 q-28 0 -64 14l-30 11q-35 14 -51 14q-26 0 -47 -43l-49 19q39 104 105 104q20 0 61 -17z" />
<glyph unicode="&#xd2;" horiz-adv-x="765" d="M728 362q0 -176 -100.5 -277t-263.5 -101q-148 0 -237.5 87.5t-89.5 247.5q0 173 101.5 272t271.5 99q139 0 228.5 -87t89.5 -241zM552 327q0 279 -176 279q-82 0 -126.5 -65.5t-44.5 -190.5q0 -142 50 -211t136 -69q80 0 120.5 61t40.5 196zM225 847l89 70 q28 -33 159 -171l-34 -34q-150 91 -214 135z" />
<glyph unicode="&#xd3;" horiz-adv-x="765" d="M728 362q0 -176 -100.5 -277t-263.5 -101q-148 0 -237.5 87.5t-89.5 247.5q0 173 101.5 272t271.5 99q139 0 228.5 -87t89.5 -241zM552 327q0 279 -176 279q-82 0 -126.5 -65.5t-44.5 -190.5q0 -142 50 -211t136 -69q80 0 120.5 61t40.5 196zM446 917l89 -70 q-64 -44 -214 -135l-34 34q131 138 159 171z" />
<glyph unicode="&#xd4;" horiz-adv-x="765" d="M728 362q0 -176 -100.5 -277t-263.5 -101q-148 0 -237.5 87.5t-89.5 247.5q0 173 101.5 272t271.5 99q139 0 228.5 -87t89.5 -241zM552 327q0 279 -176 279q-82 0 -126.5 -65.5t-44.5 -190.5q0 -142 50 -211t136 -69q80 0 120.5 61t40.5 196zM565 741l-37 -34 q-25 18 -75.5 53t-68.5 48q-9 -6 -65.5 -45.5t-78.5 -55.5l-33 34q33 33 135 149h96q80 -97 127 -149z" />
<glyph unicode="&#xd5;" horiz-adv-x="765" d="M728 362q0 -176 -100.5 -277t-263.5 -101q-148 0 -237.5 87.5t-89.5 247.5q0 173 101.5 272t271.5 99q139 0 228.5 -87t89.5 -241zM552 327q0 279 -176 279q-82 0 -126.5 -65.5t-44.5 -190.5q0 -142 50 -211t136 -69q80 0 120.5 61t40.5 196zM377 835l33 -12q23 -9 43 -9 q29 0 46 48l52 -11q-14 -60 -37 -89t-62 -29q-28 0 -64 14l-30 11q-35 14 -51 14q-14 0 -24.5 -9t-22.5 -34l-49 19q39 104 105 104q20 0 61 -17z" />
<glyph unicode="&#xd6;" horiz-adv-x="765" d="M728 362q0 -176 -100.5 -277t-263.5 -101q-148 0 -237.5 87.5t-89.5 247.5q0 173 101.5 272t271.5 99q139 0 228.5 -87t89.5 -241zM552 327q0 279 -176 279q-82 0 -126.5 -65.5t-44.5 -190.5q0 -142 50 -211t136 -69q80 0 120.5 61t40.5 196zM284 734q-27 0 -44 17 t-17 45q0 27 17 44.5t46 17.5q28 0 45 -17.5t17 -44.5t-17.5 -44.5t-46.5 -17.5zM481 734q-27 0 -44 17t-17 45q0 27 17 44.5t46 17.5q28 0 45 -17.5t17 -44.5t-17.5 -44.5t-46.5 -17.5z" />
<glyph unicode="&#xd7;" horiz-adv-x="617" d="M505 173l-66 -67l-131 128l-128 -129l-64 63l128 130l-132 128l67 68l130 -129l128 129l65 -64l-128 -128z" />
<glyph unicode="&#xd8;" horiz-adv-x="765" d="M728 362q0 -176 -100.5 -277t-263.5 -101q-101 0 -175 41l-52 -70l-59 45l51 69q-92 90 -92 250q0 173 101.5 272t271.5 99q83 0 153 -34l52 70l60 -46l-49 -66q102 -89 102 -252zM552 327q0 96 -21 159l-267 -360q47 -56 127 -56t120.5 61t40.5 196zM205 350 q0 -89 20 -151l266 359q-43 48 -115 48q-82 0 -126.5 -65.5t-44.5 -190.5z" />
<glyph unicode="&#xd9;" horiz-adv-x="766" d="M758 591q-11 1 -25 1q-7 0 -11.5 -0.5t-7.5 -0.5t-6 -1.5l-4 -2t-5 -3.5t-6 -4q-12 -8 -12 -64q-1 -89 -1 -251q0 -136 -73 -209t-212 -73q-163 0 -236 65.5t-73 190.5q0 73 1.5 163.5t1.5 116.5q0 51 -9 61q-7 12 -40 12q-17 0 -27 -1v85q72 -4 166 -4q88 0 156 4v-85 q-10 1 -27 1q-39 0 -48 -12q-11 -13 -12 -64q-4 -120 -4 -238q0 -106 40 -148t128 -42t124.5 53.5t36.5 154.5q0 157 -2 223q-1 48 -13 61q-10 12 -43 12q-21 0 -30 -1v85q70 -4 164 -4q41 0 109 4v-85zM225 847l89 70q28 -33 159 -171l-34 -34q-150 91 -214 135z" />
<glyph unicode="&#xda;" horiz-adv-x="766" d="M758 591q-11 1 -25 1q-7 0 -11.5 -0.5t-7.5 -0.5t-6 -1.5l-4 -2t-5 -3.5t-6 -4q-12 -8 -12 -64q-1 -89 -1 -251q0 -136 -73 -209t-212 -73q-163 0 -236 65.5t-73 190.5q0 73 1.5 163.5t1.5 116.5q0 51 -9 61q-7 12 -40 12q-17 0 -27 -1v85q72 -4 166 -4q88 0 156 4v-85 q-10 1 -27 1q-39 0 -48 -12q-11 -13 -12 -64q-4 -120 -4 -238q0 -106 40 -148t128 -42t124.5 53.5t36.5 154.5q0 157 -2 223q-1 48 -13 61q-10 12 -43 12q-21 0 -30 -1v85q70 -4 164 -4q41 0 109 4v-85zM446 917l89 -70q-64 -44 -214 -135l-34 34q131 138 159 171z" />
<glyph unicode="&#xdb;" horiz-adv-x="766" d="M758 591q-11 1 -25 1q-7 0 -11.5 -0.5t-7.5 -0.5t-6 -1.5l-4 -2t-5 -3.5t-6 -4q-12 -8 -12 -64q-1 -89 -1 -251q0 -136 -73 -209t-212 -73q-163 0 -236 65.5t-73 190.5q0 73 1.5 163.5t1.5 116.5q0 51 -9 61q-7 12 -40 12q-17 0 -27 -1v85q72 -4 166 -4q88 0 156 4v-85 q-10 1 -27 1q-39 0 -48 -12q-11 -13 -12 -64q-4 -120 -4 -238q0 -106 40 -148t128 -42t124.5 53.5t36.5 154.5q0 157 -2 223q-1 48 -13 61q-10 12 -43 12q-21 0 -30 -1v85q70 -4 164 -4q41 0 109 4v-85zM579 741l-37 -34q-25 18 -75.5 53t-68.5 48q-9 -6 -65.5 -45.5 t-78.5 -55.5l-33 34q33 33 135 149h96q80 -97 127 -149z" />
<glyph unicode="&#xdc;" horiz-adv-x="766" d="M758 591q-11 1 -25 1q-7 0 -11.5 -0.5t-7.5 -0.5t-6 -1.5l-4 -2t-5 -3.5t-6 -4q-12 -8 -12 -64q-1 -89 -1 -251q0 -136 -73 -209t-212 -73q-163 0 -236 65.5t-73 190.5q0 73 1.5 163.5t1.5 116.5q0 51 -9 61q-7 12 -40 12q-17 0 -27 -1v85q72 -4 166 -4q88 0 156 4v-85 q-10 1 -27 1q-39 0 -48 -12q-11 -13 -12 -64q-4 -120 -4 -238q0 -106 40 -148t128 -42t124.5 53.5t36.5 154.5q0 157 -2 223q-1 48 -13 61q-10 12 -43 12q-21 0 -30 -1v85q70 -4 164 -4q41 0 109 4v-85zM293 734q-27 0 -44 17t-17 45q0 27 17 44.5t46 17.5q28 0 45 -17.5 t17 -44.5t-17.5 -44.5t-46.5 -17.5zM490 734q-27 0 -44 17t-17 45q0 27 17 44.5t46 17.5q28 0 45 -17.5t17 -44.5t-17.5 -44.5t-46.5 -17.5z" />
<glyph unicode="&#xdd;" horiz-adv-x="686" d="M505 83v-85q-152 4 -164 4q-60 0 -168 -4v85q16 -1 39 -1q30 0 38 12q7 11 10 62q1 32 1 123q-60 97 -178 268q-30 45 -68 45q-10 0 -15 -1v85q39 -3 152 -3q140 0 178 3v-85q-1 0 -8.5 0.5t-15.5 0.5q-25 0 -35 -4.5t-10 -18.5q0 -20 27 -59q13 -18 38.5 -58t44.5 -68 q42 65 80 131q17 31 17 50q0 14 -8.5 20t-37.5 7h-8t-3.5 -0.5t-1 -0.5h-1.5v85q39 -3 141 -3q99 0 137 3v-85q-5 1 -15 1q-41 0 -77 -47q-52 -66 -178 -264q0 -55 1 -125q0 -50 6 -61q7 -13 49 -13q21 0 33 1zM437 917l89 -70q-64 -44 -214 -135l-34 34q131 138 159 171z " />
<glyph unicode="&#xde;" horiz-adv-x="632" d="M338 -2q-112 4 -166 4q-19 0 -47 -0.5t-61 -2t-45 -1.5v85q13 -1 33 -1q34 0 41 13q5 11 5 61q1 80 1 196q0 47 -0.5 104.5t-0.5 63.5q0 48 -5 60q-8 12 -41 12q-20 0 -33 -1v85q12 0 45 -1.5t61 -2t47 -0.5q54 0 166 4v-85q-15 1 -37 1q-27 0 -35 -11q-9 -14 -10 -40 q39 3 90 3q254 0 254 -181q0 -222 -291 -222q-34 0 -52 2q0 -15 1 -21q1 -18 8 -28q8 -12 40 -12q17 0 32 1v-85zM256 266q0 -33 10 -37q10 -5 53 -5q55 0 84.5 27.5t29.5 105.5q0 103 -114 103q-40 0 -52 -12q-9 -9 -10 -40q-1 -22 -1 -142z" />
<glyph unicode="&#xdf;" horiz-adv-x="612" d="M246 -1q-74 2 -97 2q-16 0 -127 -3v83q12 -1 22 -1q34 0 44 10q6 6 8 61q1 35 1 156q0 59 -1 85q-48 0 -69 -2v87q30 0 47 5q11 3 16.5 11.5t11.5 40.5q13 61 35 101q65 112 214 112q87 0 130 -42.5t43 -100.5q0 -47 -12.5 -77t-50.5 -67q-52 -51 -52 -68q0 -15 14 -30 t66 -53q98 -71 98 -148q0 -88 -58.5 -132t-139.5 -44q-61 0 -93.5 22.5t-32.5 55.5q0 25 15 41.5t43 16.5q33 0 47 -26q16 -30 37 -30q37 0 37 54q0 27 -16 47.5t-61 56.5q-37 30 -51.5 43t-28 34t-13.5 42q0 19 11 40t47 64q60 73 60 150q0 35 -16.5 50.5t-40.5 15.5 q-52 0 -72 -54q-11 -29 -15 -91t-4 -229q0 -229 4 -289z" />
<glyph unicode="&#xe0;" horiz-adv-x="564" d="M326 56q-66 -69 -146 -69q-70 0 -110.5 43.5t-40.5 100.5q0 95 90 124q33 11 172 33q23 4 31 12t8 25q0 48 -18 65.5t-54 17.5q-29 0 -40 -18q-9 -13 -13 -34q-7 -38 -64 -38q-68 0 -68 60q0 50 58 83.5t164 33.5q93 0 136.5 -31t43.5 -107q0 -21 -3 -86t-3 -108 q0 -48 9.5 -62.5t28.5 -14.5q15 0 32 5l12 -81q-54 -21 -119 -21q-47 0 -72 14.5t-34 52.5zM326 187q0 19 -20 19q-37 0 -81 -14q-42 -13 -42 -51q0 -20 13 -33.5t38 -13.5q41 0 62 18q30 26 30 75zM135 699l102 47q41 -83 98 -189l-41 -25q-100 100 -159 167z" />
<glyph unicode="&#xe1;" horiz-adv-x="564" d="M326 56q-66 -69 -146 -69q-70 0 -110.5 43.5t-40.5 100.5q0 95 90 124q33 11 172 33q23 4 31 12t8 25q0 48 -18 65.5t-54 17.5q-29 0 -40 -18q-9 -13 -13 -34q-7 -38 -64 -38q-68 0 -68 60q0 50 58 83.5t164 33.5q93 0 136.5 -31t43.5 -107q0 -21 -3 -86t-3 -108 q0 -48 9.5 -62.5t28.5 -14.5q15 0 32 5l12 -81q-54 -21 -119 -21q-47 0 -72 14.5t-34 52.5zM326 187q0 19 -20 19q-37 0 -81 -14q-42 -13 -42 -51q0 -20 13 -33.5t38 -13.5q41 0 62 18q30 26 30 75zM313 746l102 -47q-59 -67 -159 -167l-41 25q57 106 98 189z" />
<glyph unicode="&#xe2;" horiz-adv-x="564" d="M326 56q-66 -69 -146 -69q-70 0 -110.5 43.5t-40.5 100.5q0 95 90 124q33 11 172 33q23 4 31 12t8 25q0 48 -18 65.5t-54 17.5q-29 0 -40 -18q-9 -13 -13 -34q-7 -38 -64 -38q-68 0 -68 60q0 50 58 83.5t164 33.5q93 0 136.5 -31t43.5 -107q0 -21 -3 -86t-3 -108 q0 -48 9.5 -62.5t28.5 -14.5q15 0 32 5l12 -81q-54 -21 -119 -21q-47 0 -72 14.5t-34 52.5zM326 187q0 19 -20 19q-37 0 -81 -14q-42 -13 -42 -51q0 -20 13 -33.5t38 -13.5q41 0 62 18q30 26 30 75zM425 553l-44 -27q-68 66 -106 100q-48 -43 -107 -102l-42 29 q46 59 117 158h73q20 -30 60 -87.5t49 -70.5z" />
<glyph unicode="&#xe3;" horiz-adv-x="564" d="M326 56q-66 -69 -146 -69q-70 0 -110.5 43.5t-40.5 100.5q0 95 90 124q33 11 172 33q23 4 31 12t8 25q0 48 -18 65.5t-54 17.5q-29 0 -40 -18q-9 -13 -13 -34q-7 -38 -64 -38q-68 0 -68 60q0 50 58 83.5t164 33.5q93 0 136.5 -31t43.5 -107q0 -21 -3 -86t-3 -108 q0 -48 9.5 -62.5t28.5 -14.5q15 0 32 5l12 -81q-54 -21 -119 -21q-47 0 -72 14.5t-34 52.5zM326 187q0 19 -20 19q-37 0 -81 -14q-42 -13 -42 -51q0 -20 13 -33.5t38 -13.5q41 0 62 18q30 26 30 75zM266 657l31 -13q21 -9 38 -9q28 0 44 49l52 -12q-13 -61 -35 -91t-59 -30 q-27 0 -60 14l-29 12q-33 14 -46 14q-14 0 -23.5 -9t-21.5 -35l-49 19q37 107 100 107q17 0 58 -16z" />
<glyph unicode="&#xe4;" horiz-adv-x="564" d="M326 56q-66 -69 -146 -69q-70 0 -110.5 43.5t-40.5 100.5q0 95 90 124q33 11 172 33q23 4 31 12t8 25q0 48 -18 65.5t-54 17.5q-29 0 -40 -18q-9 -13 -13 -34q-7 -38 -64 -38q-68 0 -68 60q0 50 58 83.5t164 33.5q93 0 136.5 -31t43.5 -107q0 -21 -3 -86t-3 -108 q0 -48 9.5 -62.5t28.5 -14.5q15 0 32 5l12 -81q-54 -21 -119 -21q-47 0 -72 14.5t-34 52.5zM326 187q0 19 -20 19q-37 0 -81 -14q-42 -13 -42 -51q0 -20 13 -33.5t38 -13.5q41 0 62 18q30 26 30 75zM181 564q-27 0 -44 17t-17 45q0 27 17 44.5t46 17.5q28 0 45 -17.5 t17 -44.5t-17.5 -44.5t-46.5 -17.5zM368 564q-27 0 -44 17t-17 45q0 27 17 44.5t46 17.5q28 0 45 -17.5t17 -44.5t-17.5 -44.5t-46.5 -17.5z" />
<glyph unicode="&#xe5;" horiz-adv-x="564" d="M326 56q-66 -69 -146 -69q-70 0 -110.5 43.5t-40.5 100.5q0 95 90 124q33 11 172 33q23 4 31 12t8 25q0 48 -18 65.5t-54 17.5q-29 0 -40 -18q-9 -13 -13 -34q-7 -38 -64 -38q-68 0 -68 60q0 50 58 83.5t164 33.5q93 0 136.5 -31t43.5 -107q0 -21 -3 -86t-3 -108 q0 -48 9.5 -62.5t28.5 -14.5q15 0 32 5l12 -81q-54 -21 -119 -21q-47 0 -72 14.5t-34 52.5zM326 187q0 19 -20 19q-37 0 -81 -14q-42 -13 -42 -51q0 -20 13 -33.5t38 -13.5q41 0 62 18q30 26 30 75zM276 724q45 0 72 -26.5t27 -68.5q0 -43 -28.5 -70.5t-71.5 -27.5t-72 26.5 t-29 68.5t29.5 70t72.5 28zM275 682q-21 0 -35.5 -14.5t-14.5 -39.5q0 -23 13.5 -38.5t36.5 -15.5q21 0 35.5 15t14.5 39q0 25 -14.5 39.5t-35.5 14.5z" />
<glyph unicode="&#xe6;" horiz-adv-x="809" d="M370 71q-43 -43 -85.5 -63.5t-98.5 -20.5q-71 0 -114 44t-43 100q0 93 93 123q31 10 169 34q23 4 31 12t8 25q0 48 -17.5 64.5t-54.5 16.5q-30 0 -40 -16q-4 -6 -13 -34q-13 -38 -64 -38q-68 0 -68 60q0 50 58 83.5t164 33.5q103 0 145 -49q55 50 146 50q95 0 145.5 -53 t50.5 -145q0 -29 -9.5 -41t-32.5 -14q-101 -6 -269 -8q-1 -8 -1 -19q0 -17 4.5 -34.5t16 -38t38.5 -33.5t65 -13q64 0 142 62l58 -59q-55 -57 -111 -86t-130 -29q-124 0 -183 86zM326 181q0 22 -22 22q-46 0 -79 -11q-24 -8 -34.5 -18.5t-10.5 -31.5q0 -20 14 -34t40 -14 q38 0 62 20q30 26 30 67zM476 325q0 -11 15 -12q12 -1 45 -1q77 0 91 15q7 9 7 25q0 31 -17.5 46t-45.5 15q-70 0 -92 -65q-3 -12 -3 -23z" />
<glyph unicode="&#xe7;" horiz-adv-x="504" d="M170 -262v57q51 0 78 11t27 41q0 39 -60 39l-10 21l36 79q-97 5 -152.5 69t-55.5 165q0 122 76 199t201 77q73 0 115 -30t42 -74q0 -66 -64 -66q-52 0 -66 45q-11 37 -48 37q-42 0 -73 -37.5t-31 -120.5q0 -79 34 -116.5t81 -37.5q37 0 64.5 13t66.5 43l57 -57 q-82 -91 -183 -107l-19 -47q89 -6 89 -78q0 -46 -34 -75.5t-77 -39.5t-94 -10z" />
<glyph unicode="&#xe8;" horiz-adv-x="521" d="M507 100q-55 -57 -111 -86t-130 -29q-108 0 -170.5 64.5t-62.5 171.5q0 117 74 196t192 79q95 0 145.5 -53t50.5 -145q0 -29 -9.5 -41t-32.5 -14q-101 -6 -269 -8q-1 -8 -1 -19q0 -17 4.5 -34.5t16 -38t38.5 -33.5t65 -13q65 0 142 62zM189 325q0 -11 15 -12q12 -1 45 -1 q77 0 91 15q7 9 7 25q0 30 -18 44.5t-45 14.5q-71 0 -91 -63q-4 -11 -4 -23zM157 699l102 47q41 -83 98 -189l-41 -25q-100 100 -159 167z" />
<glyph unicode="&#xe9;" horiz-adv-x="521" d="M507 100q-55 -57 -111 -86t-130 -29q-108 0 -170.5 64.5t-62.5 171.5q0 117 74 196t192 79q95 0 145.5 -53t50.5 -145q0 -29 -9.5 -41t-32.5 -14q-101 -6 -269 -8q-1 -8 -1 -19q0 -17 4.5 -34.5t16 -38t38.5 -33.5t65 -13q65 0 142 62zM189 325q0 -11 15 -12q12 -1 45 -1 q77 0 91 15q7 9 7 25q0 30 -18 44.5t-45 14.5q-71 0 -91 -63q-4 -11 -4 -23zM318 746l102 -47q-59 -67 -159 -167l-41 25q57 106 98 189z" />
<glyph unicode="&#xea;" horiz-adv-x="521" d="M507 100q-55 -57 -111 -86t-130 -29q-108 0 -170.5 64.5t-62.5 171.5q0 117 74 196t192 79q95 0 145.5 -53t50.5 -145q0 -29 -9.5 -41t-32.5 -14q-101 -6 -269 -8q-1 -8 -1 -19q0 -17 4.5 -34.5t16 -38t38.5 -33.5t65 -13q65 0 142 62zM189 325q0 -11 15 -12q12 -1 45 -1 q77 0 91 15q7 9 7 25q0 30 -18 44.5t-45 14.5q-71 0 -91 -63q-4 -11 -4 -23zM425 553l-44 -27q-68 66 -106 100q-48 -43 -107 -102l-42 29q46 59 117 158h73q20 -30 60 -87.5t49 -70.5z" />
<glyph unicode="&#xeb;" horiz-adv-x="521" d="M507 100q-55 -57 -111 -86t-130 -29q-108 0 -170.5 64.5t-62.5 171.5q0 117 74 196t192 79q95 0 145.5 -53t50.5 -145q0 -29 -9.5 -41t-32.5 -14q-101 -6 -269 -8q-1 -8 -1 -19q0 -17 4.5 -34.5t16 -38t38.5 -33.5t65 -13q65 0 142 62zM189 325q0 -11 15 -12q12 -1 45 -1 q77 0 91 15q7 9 7 25q0 30 -18 44.5t-45 14.5q-71 0 -91 -63q-4 -11 -4 -23zM186 564q-27 0 -44 17t-17 45q0 27 17 44.5t46 17.5q28 0 45 -17.5t17 -44.5t-17.5 -44.5t-46.5 -17.5zM373 564q-27 0 -44 17t-17 45q0 27 17 44.5t46 17.5q28 0 45 -17.5t17 -44.5t-17.5 -44.5 t-46.5 -17.5z" />
<glyph unicode="&#xec;" horiz-adv-x="326" d="M311 -2q-62 4 -145 4q-19 0 -46 -0.5t-58 -2t-43 -1.5v83q13 -1 24 -1q34 0 43 13q5 9 7 61q1 29 1 93q0 88 -5 122q-3 25 -48 25q-10 0 -23 -1v84q156 0 222 18l9 -14q-9 -86 -9 -211q0 -75 1 -116q1 -51 7 -61q8 -13 38 -13q9 0 25 1v-83zM43 699l102 47 q41 -83 98 -189l-41 -25q-100 100 -159 167z" />
<glyph unicode="&#xed;" horiz-adv-x="326" d="M311 -2q-62 4 -145 4q-19 0 -46 -0.5t-58 -2t-43 -1.5v83q13 -1 24 -1q34 0 43 13q5 9 7 61q1 29 1 93q0 88 -5 122q-3 25 -48 25q-10 0 -23 -1v84q156 0 222 18l9 -14q-9 -86 -9 -211q0 -75 1 -116q1 -51 7 -61q8 -13 38 -13q9 0 25 1v-83zM182 746l102 -47 q-59 -67 -159 -167l-41 25q57 106 98 189z" />
<glyph unicode="&#xee;" horiz-adv-x="326" d="M311 -2q-62 4 -145 4q-19 0 -46 -0.5t-58 -2t-43 -1.5v83q13 -1 24 -1q34 0 43 13q5 9 7 61q1 29 1 93q0 88 -5 122q-3 25 -48 25q-10 0 -23 -1v84q156 0 222 18l9 -14q-9 -86 -9 -211q0 -75 1 -116q1 -51 7 -61q8 -13 38 -13q9 0 25 1v-83zM294 553l-44 -27 q-68 66 -106 100q-48 -43 -107 -102l-42 29q46 59 117 158h73q20 -30 60 -87.5t49 -70.5z" />
<glyph unicode="&#xef;" horiz-adv-x="326" d="M311 -2q-62 4 -145 4q-19 0 -46 -0.5t-58 -2t-43 -1.5v83q13 -1 24 -1q34 0 43 13q5 9 7 61q1 29 1 93q0 88 -5 122q-3 25 -48 25q-10 0 -23 -1v84q156 0 222 18l9 -14q-9 -86 -9 -211q0 -75 1 -116q1 -51 7 -61q8 -13 38 -13q9 0 25 1v-83zM48 564q-27 0 -44 17t-17 45 q0 27 17 44.5t46 17.5q28 0 45 -17.5t17 -44.5t-17.5 -44.5t-46.5 -17.5zM235 564q-27 0 -44 17t-17 45q0 27 17 44.5t46 17.5q28 0 45 -17.5t17 -44.5t-17.5 -44.5t-46.5 -17.5z" />
<glyph unicode="&#xf0;" horiz-adv-x="579" d="M423 700l36 -69l-59 -28q146 -129 146 -343q0 -125 -71.5 -199.5t-195.5 -74.5q-113 0 -179.5 68.5t-66.5 172.5q0 119 68 188.5t193 69.5q34 0 61 -14q-21 41 -61 79l-108 -53l-35 70q20 8 76 36q-44 27 -86 43l31 69q89 -21 159 -62l39 19.5t35.5 18t17.5 9.5zM395 225 q0 184 -104 184q-103 0 -103 -152q0 -186 110 -186q50 0 73.5 36t23.5 118z" />
<glyph unicode="&#xf1;" horiz-adv-x="628" d="M302 -2q-112 4 -133 4q-19 0 -46.5 -0.5t-59.5 -2t-44 -1.5v83q13 -1 23 -1q35 0 44 14q5 8 7 60q1 44 1 102q0 96 -6 115q-9 23 -48 23q-14 0 -22 -1v84q156 0 217 17l11 -12q-1 -8 -2.5 -30t-2.5 -37q103 80 168 80q101 0 127 -89q11 -41 11 -152v-100q0 -53 6 -62 q9 -12 37 -12q17 0 27 1v-83q-112 4 -138 4q-18 0 -44.5 -0.5t-57 -2t-42.5 -1.5v83q9 -1 24 -1q23 0 31 15q12 24 12 104q0 76 -4 113t-19 51q-17 17 -46 17q-41 0 -72 -32q-21 -23 -21 -102q0 -51 1 -92q1 -52 7 -62q8 -12 31 -12q14 0 23 1v-83zM310 657l31 -13 q21 -9 38 -9q28 0 44 49l52 -12q-13 -61 -35 -91t-59 -30q-27 0 -60 14l-29 12q-33 14 -46 14q-14 0 -23.5 -9t-21.5 -35l-49 19q37 107 100 107q17 0 58 -16z" />
<glyph unicode="&#xf2;" horiz-adv-x="579" d="M546 259q0 -123 -72 -198t-195 -75q-113 0 -179.5 68.5t-66.5 172.5q0 118 75 193.5t200 75.5q107 0 172.5 -66t65.5 -171zM395 225q0 184 -104 184q-103 0 -103 -152q0 -186 110 -186q50 0 73.5 36t23.5 118zM160 699l102 47q41 -83 98 -189l-41 -25q-100 100 -159 167z " />
<glyph unicode="&#xf3;" horiz-adv-x="579" d="M546 259q0 -123 -72 -198t-195 -75q-113 0 -179.5 68.5t-66.5 172.5q0 118 75 193.5t200 75.5q107 0 172.5 -66t65.5 -171zM395 225q0 184 -104 184q-103 0 -103 -152q0 -186 110 -186q50 0 73.5 36t23.5 118zM318 746l102 -47q-59 -67 -159 -167l-41 25q57 106 98 189z " />
<glyph unicode="&#xf4;" horiz-adv-x="579" d="M546 259q0 -123 -72 -198t-195 -75q-113 0 -179.5 68.5t-66.5 172.5q0 118 75 193.5t200 75.5q107 0 172.5 -66t65.5 -171zM395 225q0 184 -104 184q-103 0 -103 -152q0 -186 110 -186q50 0 73.5 36t23.5 118zM438 553l-44 -27q-68 66 -106 100q-48 -43 -107 -102l-42 29 q46 59 117 158h73q20 -30 60 -87.5t49 -70.5z" />
<glyph unicode="&#xf5;" horiz-adv-x="579" d="M546 259q0 -123 -72 -198t-195 -75q-113 0 -179.5 68.5t-66.5 172.5q0 118 75 193.5t200 75.5q107 0 172.5 -66t65.5 -171zM395 225q0 184 -104 184q-103 0 -103 -152q0 -186 110 -186q50 0 73.5 36t23.5 118zM285 657l31 -13q21 -9 38 -9q28 0 44 49l52 -12 q-13 -61 -35 -91t-59 -30q-27 0 -60 14l-29 12q-33 14 -46 14q-14 0 -23.5 -9t-21.5 -35l-49 19q37 107 100 107q17 0 58 -16z" />
<glyph unicode="&#xf6;" horiz-adv-x="579" d="M546 259q0 -123 -72 -198t-195 -75q-113 0 -179.5 68.5t-66.5 172.5q0 118 75 193.5t200 75.5q107 0 172.5 -66t65.5 -171zM395 225q0 184 -104 184q-103 0 -103 -152q0 -186 110 -186q50 0 73.5 36t23.5 118zM194 564q-27 0 -44 17t-17 45q0 27 17 44.5t46 17.5 q28 0 45 -17.5t17 -44.5t-17.5 -44.5t-46.5 -17.5zM381 564q-27 0 -44 17t-17 45q0 27 17 44.5t46 17.5q28 0 45 -17.5t17 -44.5t-17.5 -44.5t-46.5 -17.5z" />
<glyph unicode="&#xf7;" horiz-adv-x="617" d="M375 451q0 -28 -19 -46.5t-48 -18.5q-30 0 -49 18.5t-19 47.5q0 28 19.5 47t48.5 19t48 -19t19 -48zM537 251h-457v92h457v-92zM375 142q0 -28 -19 -46.5t-48 -18.5q-30 0 -49 18.5t-19 47.5q0 28 19.5 47t48.5 19t48 -19t19 -48z" />
<glyph unicode="&#xf8;" horiz-adv-x="579" d="M546 259q0 -123 -72 -198t-195 -75q-64 0 -117 24l-48 -65l-54 42l45 62q-72 67 -72 178q0 118 75 193.5t200 75.5q61 0 110 -23l48 65l55 -43l-45 -61q70 -67 70 -175zM400 225q0 51 -10 92l-163 -220q27 -27 71 -27q53 0 77.5 36t24.5 119zM183 257q0 -53 9 -91 l162 220q-26 24 -63 24q-108 0 -108 -153z" />
<glyph unicode="&#xf9;" horiz-adv-x="624" d="M616 2q-146 0 -212 -13l-12 11q1 6 5 66q-31 -41 -72.5 -60.5t-79.5 -19.5q-29 0 -50 3t-45.5 13.5t-40 28.5t-25.5 51t-10 78q0 3 1.5 67t1.5 96q0 44 -8 57q-8 14 -36 14q-12 0 -28 -1v84q164 0 219 17l12 -13q-16 -107 -16 -249q0 -72 14 -101q8 -16 26.5 -24.5 t35.5 -8.5q63 0 85 39q16 30 16 110q0 51 -1 76q-1 46 -8 57q-8 14 -39 14q-10 0 -26 -1v84q165 0 220 17l12 -13q-14 -93 -14 -265q0 -83 7 -110q7 -23 36 -23q14 0 32 2v-83zM172 699l102 47q41 -83 98 -189l-41 -25q-100 100 -159 167z" />
<glyph unicode="&#xfa;" horiz-adv-x="624" d="M616 2q-146 0 -212 -13l-12 11q1 6 5 66q-31 -41 -72.5 -60.5t-79.5 -19.5q-29 0 -50 3t-45.5 13.5t-40 28.5t-25.5 51t-10 78q0 3 1.5 67t1.5 96q0 44 -8 57q-8 14 -36 14q-12 0 -28 -1v84q164 0 219 17l12 -13q-16 -107 -16 -249q0 -72 14 -101q8 -16 26.5 -24.5 t35.5 -8.5q63 0 85 39q16 30 16 110q0 51 -1 76q-1 46 -8 57q-8 14 -39 14q-10 0 -26 -1v84q165 0 220 17l12 -13q-14 -93 -14 -265q0 -83 7 -110q7 -23 36 -23q14 0 32 2v-83zM344 746l102 -47q-59 -67 -159 -167l-41 25q57 106 98 189z" />
<glyph unicode="&#xfb;" horiz-adv-x="624" d="M616 2q-146 0 -212 -13l-12 11q1 6 5 66q-31 -41 -72.5 -60.5t-79.5 -19.5q-29 0 -50 3t-45.5 13.5t-40 28.5t-25.5 51t-10 78q0 3 1.5 67t1.5 96q0 44 -8 57q-8 14 -36 14q-12 0 -28 -1v84q164 0 219 17l12 -13q-16 -107 -16 -249q0 -72 14 -101q8 -16 26.5 -24.5 t35.5 -8.5q63 0 85 39q16 30 16 110q0 51 -1 76q-1 46 -8 57q-8 14 -39 14q-10 0 -26 -1v84q165 0 220 17l12 -13q-14 -93 -14 -265q0 -83 7 -110q7 -23 36 -23q14 0 32 2v-83zM446 553l-44 -27q-68 66 -106 100q-48 -43 -107 -102l-42 29q46 59 117 158h73q20 -30 60 -87.5 t49 -70.5z" />
<glyph unicode="&#xfc;" horiz-adv-x="624" d="M616 2q-146 0 -212 -13l-12 11q1 6 5 66q-31 -41 -72.5 -60.5t-79.5 -19.5q-29 0 -50 3t-45.5 13.5t-40 28.5t-25.5 51t-10 78q0 3 1.5 67t1.5 96q0 44 -8 57q-8 14 -36 14q-12 0 -28 -1v84q164 0 219 17l12 -13q-16 -107 -16 -249q0 -72 14 -101q8 -16 26.5 -24.5 t35.5 -8.5q63 0 85 39q16 30 16 110q0 51 -1 76q-1 46 -8 57q-8 14 -39 14q-10 0 -26 -1v84q165 0 220 17l12 -13q-14 -93 -14 -265q0 -83 7 -110q7 -23 36 -23q14 0 32 2v-83zM214 564q-27 0 -44 17t-17 45q0 27 17 44.5t46 17.5q28 0 45 -17.5t17 -44.5t-17.5 -44.5 t-46.5 -17.5zM401 564q-27 0 -44 17t-17 45q0 27 17 44.5t46 17.5q28 0 45 -17.5t17 -44.5t-17.5 -44.5t-46.5 -17.5z" />
<glyph unicode="&#xfd;" horiz-adv-x="584" d="M252 -11q-20 44 -75.5 157.5t-95.5 199.5q-16 36 -30 46.5t-33 10.5q-11 0 -18 -1v81q60 -4 152 -4q104 0 152 4v-81q-11 1 -37 1q-32 0 -32 -24q0 -15 31 -84q11 -24 35 -75.5t31 -67.5q5 13 17.5 44.5t22.5 57.5t17 44q22 59 22 81q0 24 -36 24q-20 0 -33 -1v81 q63 -4 130 -4q69 0 112 4v-81q-6 1 -22 1q-18 0 -29.5 -11t-26.5 -45q-16 -36 -60 -138t-77 -174t-69 -145q-72 -145 -189 -145q-45 0 -66 19t-21 44q0 29 15.5 47t43.5 18q11 0 30 -6.5t28 -6.5q36 0 60 34q28 41 51 95zM331 746l102 -47q-59 -67 -159 -167l-41 25 q57 106 98 189z" />
<glyph unicode="&#xfe;" horiz-adv-x="622" d="M313 -242q-140 4 -151 4q-22 0 -82.5 -2t-74.5 -2v83q11 -1 22 -1q32 0 42 13q7 9 9 57q2 70 2 292q0 340 -2 387q-1 35 -12 44.5t-36 9.5q-17 0 -27 -1v84q152 0 222 20l10 -14q-7 -53 -8 -320q35 39 84 63.5t96 24.5q83 0 129 -58.5t46 -172.5q0 -132 -72.5 -205.5 t-180.5 -73.5q-61 0 -102 21q0 -56 1 -98q1 -48 8 -58q9 -14 43 -15q18 0 34 1v-83zM225 205q0 -48 11 -83q8 -24 31.5 -37t51.5 -13q58 0 81.5 36t23.5 121q0 83 -20 122.5t-68 39.5q-57 0 -90 -48q-21 -31 -21 -138z" />
<glyph unicode="&#xff;" horiz-adv-x="584" d="M252 -11q-20 44 -75.5 157.5t-95.5 199.5q-16 36 -30 46.5t-33 10.5q-11 0 -18 -1v81q60 -4 152 -4q104 0 152 4v-81q-11 1 -37 1q-32 0 -32 -24q0 -15 31 -84q11 -24 35 -75.5t31 -67.5q5 13 17.5 44.5t22.5 57.5t17 44q22 59 22 81q0 24 -36 24q-20 0 -33 -1v81 q63 -4 130 -4q69 0 112 4v-81q-6 1 -22 1q-18 0 -29.5 -11t-26.5 -45q-16 -36 -60 -138t-77 -174t-69 -145q-72 -145 -189 -145q-45 0 -66 19t-21 44q0 29 15.5 47t43.5 18q11 0 30 -6.5t28 -6.5q36 0 60 34q28 41 51 95zM204 564q-27 0 -44 17t-17 45q0 27 17 44.5t46 17.5 q28 0 45 -17.5t17 -44.5t-17.5 -44.5t-46.5 -17.5zM391 564q-27 0 -44 17t-17 45q0 27 17 44.5t46 17.5q28 0 45 -17.5t17 -44.5t-17.5 -44.5t-46.5 -17.5z" />
<glyph unicode="&#x152;" horiz-adv-x="1031" d="M986 -2q-104 3 -402 3q-18 0 -103.5 -2.5t-127.5 -2.5q-156 0 -236 87t-80 240q0 151 90.5 252.5t247.5 101.5q18 0 86.5 -2.5t121.5 -2.5q306 0 372 5q2 -94 13 -173l-77 -3q-12 63 -33 75q-26 16 -101 16q-46 0 -68 -2q-20 -2 -25 -17q-5 -16 -5 -134q0 -29 10 -35 q6 -4 58 -4q55 0 73 19q12 13 18 57h75q-4 -96 -4 -131q0 -78 3 -114h-76q-4 49 -22 63q-19 14 -68 14q-55 0 -61 -6t-6 -23q0 -144 17 -170q9 -14 26 -20t58 -6q52 0 75.5 4t40.5 18q41 33 53 110l83 -4q-1 -8 -11.5 -90.5t-14.5 -122.5zM501 159q2 62 2 192q0 109 -1 162 q-1 55 -11 66q-17 22 -85 22q-103 0 -152 -71.5t-49 -191.5q0 -59 9 -103t30.5 -80t59.5 -54.5t93 -18.5q80 0 94 27q9 14 10 50z" />
<glyph unicode="&#x153;" horiz-adv-x="869" d="M855 100q-55 -57 -111 -86t-130 -29q-106 0 -163 62q-67 -61 -172 -61q-113 0 -179.5 68.5t-66.5 172.5q0 118 75 193.5t200 75.5q102 0 164 -67q69 67 175 67q95 0 145.5 -53t50.5 -145q0 -29 -9.5 -41t-32.5 -14q-101 -6 -269 -8q-1 -8 -1 -19q0 -17 4.5 -34.5t16 -38 t38.5 -33.5t65 -13q65 0 142 62zM391 225q0 191 -102 191q-101 0 -101 -159q0 -193 105 -193q98 0 98 161zM537 325q0 -11 15 -12q12 -1 45 -1q77 0 91 15q7 9 7 25q0 31 -17.5 46t-45.5 15q-70 0 -92 -65q-3 -12 -3 -23z" />
<glyph unicode="&#x178;" horiz-adv-x="686" d="M505 83v-85q-152 4 -164 4q-60 0 -168 -4v85q16 -1 39 -1q30 0 38 12q7 11 10 62q1 32 1 123q-60 97 -178 268q-30 45 -68 45q-10 0 -15 -1v85q39 -3 152 -3q140 0 178 3v-85q-1 0 -8.5 0.5t-15.5 0.5q-25 0 -35 -4.5t-10 -18.5q0 -20 27 -59q13 -18 38.5 -58t44.5 -68 q42 65 80 131q17 31 17 50q0 14 -8.5 20t-37.5 7h-8t-3.5 -0.5t-1 -0.5h-1.5v85q39 -3 141 -3q99 0 137 3v-85q-5 1 -15 1q-41 0 -77 -47q-52 -66 -178 -264q0 -55 1 -125q0 -50 6 -61q7 -13 49 -13q21 0 33 1zM256 734q-27 0 -44 17t-17 45q0 27 17 44.5t46 17.5 q28 0 45 -17.5t17 -44.5t-17.5 -44.5t-46.5 -17.5zM453 734q-27 0 -44 17t-17 45q0 27 17 44.5t46 17.5q28 0 45 -17.5t17 -44.5t-17.5 -44.5t-46.5 -17.5z" />
<glyph unicode="&#x2c6;" horiz-adv-x="277" d="M288 553l-44 -27q-68 66 -106 100q-48 -43 -107 -102l-42 29q46 59 117 158h73q20 -30 60 -87.5t49 -70.5z" />
<glyph unicode="&#x2dc;" horiz-adv-x="277" d="M135 657l31 -13q21 -9 38 -9q28 0 44 49l52 -12q-13 -61 -35 -91t-59 -30q-27 0 -60 14l-29 12q-33 14 -46 14q-14 0 -23.5 -9t-21.5 -35l-49 19q37 107 100 107q17 0 58 -16z" />
<glyph unicode="&#x2000;" horiz-adv-x="458" />
<glyph unicode="&#x2001;" horiz-adv-x="917" />
<glyph unicode="&#x2002;" horiz-adv-x="458" />
<glyph unicode="&#x2003;" horiz-adv-x="917" />
<glyph unicode="&#x2004;" horiz-adv-x="305" />
<glyph unicode="&#x2005;" horiz-adv-x="229" />
<glyph unicode="&#x2006;" horiz-adv-x="152" />
<glyph unicode="&#x2007;" horiz-adv-x="152" />
<glyph unicode="&#x2008;" horiz-adv-x="114" />
<glyph unicode="&#x2009;" horiz-adv-x="183" />
<glyph unicode="&#x200a;" horiz-adv-x="50" />
<glyph unicode="&#x2010;" horiz-adv-x="322" d="M41 313q23 -2 128 -2q75 0 112 2v-101q-29 1 -111 1q-91 0 -129 -1v101z" />
<glyph unicode="&#x2011;" horiz-adv-x="322" d="M41 313q23 -2 128 -2q75 0 112 2v-101q-29 1 -111 1q-91 0 -129 -1v101z" />
<glyph unicode="&#x2012;" horiz-adv-x="322" d="M41 313q23 -2 128 -2q75 0 112 2v-101q-29 1 -111 1q-91 0 -129 -1v101z" />
<glyph unicode="&#x2013;" horiz-adv-x="600" d="M41 309q23 -2 268 -2q213 0 250 2v-94q-29 1 -249 1q-231 0 -269 -1v94z" />
<glyph unicode="&#x2014;" horiz-adv-x="789" d="M41 309q23 -2 368 -2q301 0 338 2v-94q-29 1 -337 1q-331 0 -369 -1v94z" />
<glyph unicode="&#x2018;" horiz-adv-x="230" d="M190 703l26 -53q-24 -9 -54 -28q-29 -18 -29 -41q0 -21 25 -34q46 -24 46 -72q0 -29 -21 -50.5t-61 -21.5q-36 0 -65.5 25t-29.5 79q0 69 44.5 119t118.5 77z" />
<glyph unicode="&#x2019;" horiz-adv-x="230" d="M40 398l-26 53q14 5 54 28q29 20 29 41t-25 34q-46 24 -46 72q0 29 21 50.5t61 21.5q36 0 65.5 -25t29.5 -79q0 -69 -44.5 -119t-118.5 -77z" />
<glyph unicode="&#x201a;" horiz-adv-x="230" d="M40 -148l-26 53q14 5 54 28q29 20 29 41t-25 34q-46 24 -46 72q0 29 21 50.5t61 21.5q36 0 65.5 -25t29.5 -79q0 -69 -44.5 -119t-118.5 -77z" />
<glyph unicode="&#x201c;" horiz-adv-x="439" d="M399 703l26 -53q-14 -5 -54 -28q-29 -20 -29 -41t25 -34q46 -24 46 -72q0 -29 -21 -50.5t-61 -21.5q-36 0 -65.5 25t-29.5 79q0 69 44.5 119t118.5 77zM190 703l26 -53q-24 -9 -54 -28q-29 -18 -29 -41q0 -21 25 -34q46 -24 46 -72q0 -29 -21 -50.5t-61 -21.5 q-36 0 -65.5 25t-29.5 79q0 69 44.5 119t118.5 77z" />
<glyph unicode="&#x201d;" horiz-adv-x="439" d="M40 398l-26 53q14 5 54 28q29 20 29 41t-25 34q-46 24 -46 72q0 29 21 50.5t61 21.5q36 0 65.5 -25t29.5 -79q0 -69 -44.5 -119t-118.5 -77zM249 398l-26 53q24 9 54 28q29 18 29 41q0 21 -25 34q-46 24 -46 72q0 29 21 50.5t61 21.5q36 0 65.5 -25t29.5 -79 q0 -69 -44.5 -119t-118.5 -77z" />
<glyph unicode="&#x201e;" horiz-adv-x="439" d="M40 -148l-26 53q14 5 54 28q29 20 29 41t-25 34q-46 24 -46 72q0 29 21 50.5t61 21.5q36 0 65.5 -25t29.5 -79q0 -69 -44.5 -119t-118.5 -77zM249 -148l-26 53q24 9 54 28q29 18 29 41q0 21 -25 34q-46 24 -46 72q0 29 21 50.5t61 21.5q36 0 65.5 -25t29.5 -79 q0 -69 -44.5 -119t-118.5 -77z" />
<glyph unicode="&#x2022;" horiz-adv-x="369" d="M184 141q-65 0 -106.5 40t-41.5 115q0 67 43.5 108.5t107.5 41.5q65 0 105.5 -41.5t40.5 -111.5t-41 -111t-108 -41z" />
<glyph unicode="&#x2026;" horiz-adv-x="815" d="M200 49q0 -29 -18 -47t-46 -18t-47 19t-19 47t19 46t47 18t46 -17.5t18 -47.5zM472 49q0 -29 -18 -47t-46 -18t-47 19t-19 47t19 46t47 18t46 -17.5t18 -47.5zM745 49q0 -29 -18 -47t-46 -18t-47 19t-19 47t19 46t47 18t46 -17.5t18 -47.5z" />
<glyph unicode="&#x202f;" horiz-adv-x="183" />
<glyph unicode="&#x2039;" horiz-adv-x="313" d="M274 83l-36 -30q-142 128 -201 177v33q150 121 202 168l31 -24q-38 -57 -118 -159q103 -138 122 -165z" />
<glyph unicode="&#x203a;" horiz-adv-x="313" d="M39 401l36 30q143 -128 201 -177v-33q-150 -121 -202 -168l-31 24q38 57 118 159q-103 137 -122 165z" />
<glyph unicode="&#x205f;" horiz-adv-x="229" />
<glyph unicode="&#x20ac;" horiz-adv-x="697" d="M495 222h-194q32 -133 151 -133q47 0 88.5 26t70.5 70l68 -48q-45 -74 -112.5 -113t-144.5 -39q-118 0 -186 63.5t-84 173.5h-70v76h64q0 30 3 59h-67v76h82q29 100 103 156.5t186 56.5q90 0 141.5 -33.5t51.5 -80.5q0 -74 -68 -74q-54 0 -65 41q-10 41 -29 53.5 t-51 12.5q-102 0 -132 -132h194v-76h-203q-1 -11 -1 -33v-26h204v-76z" />
<glyph unicode="&#x2122;" horiz-adv-x="915" d="M306 321q-36 2 -104 2q-75 0 -97 -2v47h20q23 0 29 8q5 7 5 30q1 40 1 89q0 88 -1 109q0 13 -4 18q-5 5 -33 5q-20 0 -27 -10.5t-18 -53.5l-44 2q3 17 10 111q48 -3 157 -3q116 0 172 3q2 -59 7 -110l-47 -2q-7 40 -16.5 51.5t-28.5 11.5q-29 0 -33 -5q-4 -6 -4 -18 q-1 -25 -1 -112q0 -7 0.5 -34.5t0.5 -51.5q0 -22 6 -29q8 -9 34 -9h16v-47zM553 321q-30 2 -70 2q-51 0 -93 -2v47h15q23 0 31 11q5 8 7 34q12 145 12 180q0 13 -3 21q-6 14 -34 14h-13v47q15 -1 92 -1q57 0 69 1q13 -39 17 -49q5 -12 14 -35t19 -48.5t22 -55.5 q10 24 23.5 54t21.5 49t13 32q11 27 19 53q11 -1 70 -1q12 0 43.5 0.5t38.5 0.5v-46h-17q-20 0 -25 -10q-4 -8 -4 -33q0 -30 7 -177q2 -26 7 -33q6 -8 24 -8h19v-47q-30 2 -103 2q-49 0 -87 -2v47h18q18 0 25 10q5 6 5 33q0 35 -3 162q-52 -117 -94 -222h-45 q-38 107 -85 220q-2 -34 -4 -75.5t-3 -63.5t-1 -31q0 -19 8 -27q6 -6 24 -6h20v-47z" />
<glyph unicode="&#x25fc;" horiz-adv-x="485" d="M0 485h485v-485h-485v485z" />
</font>
</defs>
</svg>
